<?xml version="1.0" standalone="no"?>
<!DOCTYPE svg PUBLIC "-//W3C//DTD SVG 1.1//EN" "http://www.w3.org/Graphics/SVG/1.1/DTD/svg11.dtd">
<svg xmlns="http://www.w3.org/2000/svg">
<defs >
<font id="KantumruyPro" horiz-adv-x="625" ><font-face
    font-family="Kantumruy Pro SemiBold"
    units-per-em="1000"
    panose-1="0 0 0 0 0 0 0 0 0 0"
    ascent="920"
    descent="-260"
    alphabetic="0" />
<glyph unicode=" " glyph-name="space" horiz-adv-x="302" />
<glyph unicode="!" glyph-name="exclam" horiz-adv-x="286" d="M77 211L108 420L163 660H308L253 420L187 211H77ZM97 -9Q62 -9 41 8T19 56Q19 97 43 120T108 144Q143 144 164 127T186 79Q186 38 162 15T97 -9Z" />
<glyph unicode="&quot;" glyph-name="quotedbl" horiz-adv-x="427" d="M479 682L390 418H291L353 682H479ZM293 682L204 418H105L167 682H293Z" />
<glyph unicode="#" glyph-name="numbersign" horiz-adv-x="660" d="M306 0L520 660H622L406 0H306ZM31 169V255H600L599 169H31ZM69 0L284 660H385L170 0H69ZM98 405V492H666V405H98Z" />
<glyph unicode="$" glyph-name="dollar" horiz-adv-x="618" d="M318 0Q249 0 190 19T84 75T9 169L99 243Q119 195 154 163T234 116T326 100Q363 100 387 112T425 144T438 187Q438 205 430 218T405 242T360 260L257 290Q211 304 177 327T124 384T105 459Q105 521
137 566T227 635T357 660Q415 660 466 644T559 596T626 514L539 445Q519 489 490 514T426 549T350 560Q292 560 262 535T231 476Q231 451 249 431T302 400L425 364Q469 351 499 329T545 277T562 209Q562 143 529 96T441 25T318 0ZM189 -92L385 752H476L281 -92H189Z"
/>
<glyph unicode="%" glyph-name="percent" horiz-adv-x="959" d="M131 0L743 661H864L253 0H131ZM249 299Q175 299 131 343T87 460Q87 517 112 564T180 641T281 670Q355 670 399 626T443 509Q443 451 419 404T350 328T249 299ZM255 394Q281 394 299 410T328 452T338
505Q338 537 322 555T276 574Q250 574 231 558T202 517T192 463Q192 431 208 413T255 394ZM715 -9Q641 -9 597 35T553 151Q553 210 578 257T646 333T747 362Q821 362 865 318T909 201Q909 144 884 96T816 20T715 -9ZM720 86Q747 86 765 102T794 144T804 198Q804
229 788 248T742 267Q715 267 697 251T668 209T658 155Q658 124 674 105T720 86Z" />
<glyph unicode="&amp;" glyph-name="ampersand" horiz-adv-x="617" d="M224 -9Q126 -9 71 41T16 171Q16 234 43 277T119 347T233 388L275 407Q314 416 345 429T395 464T414 519Q414 547 399 562T360 577Q327 577 307 553T286 488Q286 462 294 429T320 354T371
255Q399 203 431 164T500 102T578 82L554 -10H542Q464 -10 402 42T284 190Q246 256 222 307T187 402T176 483Q176 539 200 581T267 646T367 670Q439 670 480 635T521 542Q521 485 493 444T413 376T294 333L287 320Q243 309 210 292T157 249T138 184Q138 136 169
110T251 84Q293 84 323 101T382 145L401 156Q430 183 451 223T483 318L580 315Q564 246 531 187T452 89L432 75Q391 40 342 16T224 -9Z" />
<glyph unicode="&apos;" glyph-name="quotesingle" horiz-adv-x="241" d="M293 682L204 418H105L167 682H293Z" />
<glyph unicode="(" glyph-name="parenleft" horiz-adv-x="373" d="M188 -190Q129 -113 97 -17T65 186Q65 273 88 355T154 509T260 641T400 741L451 672Q364 614 306 536T219 364T189 165Q189 81 209 6T266 -130L188 -190Z" />
<glyph unicode=")" glyph-name="parenright" horiz-adv-x="373" d="M185 741Q245 664 276 568T308 365Q308 278 285 196T219 42T113 -90T-27 -190L-78 -121Q9 -63 67 15T155 187T184 386Q184 470 164 545T107 681L185 741Z" />
<glyph unicode="*" glyph-name="asterisk" horiz-adv-x="576" d="M393 252L342 368L328 418L291 371L191 272L123 342L225 439L272 474L223 490L108 543L157 633L270 575L315 546L320 604L346 730H449L415 593L395 538L450 556L583 585L591 488L458 463L401 458L430
412L484 298L393 252Z" />
<glyph unicode="+" glyph-name="plus" horiz-adv-x="604" d="M435 580L316 63H203L322 580H435ZM579 374L555 270H59L83 374H579Z" />
<glyph unicode="," glyph-name="comma" horiz-adv-x="269" d="M100 152Q145 152 166 126T187 59Q187 14 164 -30T97 -107T-5 -154L-39 -96Q-1 -88 27 -73T75 -39T103 1L101 3Q95 -1 89 -2T72 -4Q46 -4 28 16T10 64Q10 103 35 127T100 152Z" />
<glyph unicode="-" glyph-name="hyphen" horiz-adv-x="518" d="M452 325L425 207H73L100 325H452Z" />
<glyph unicode="." glyph-name="period" horiz-adv-x="274" d="M91 -8Q55 -8 33 9T11 60Q11 101 35 126T102 152Q137 152 159 134T181 83Q181 41 157 17T91 -8Z" />
<glyph unicode="/" glyph-name="slash" horiz-adv-x="445" d="M537 718L79 -70H-58L399 718H537Z" />
<glyph unicode="0" glyph-name="zero" d="M296 -9Q222 -9 170 22T91 110T64 245Q64 276 67 310T78 374Q96 456 132 523T227 630T372 671Q445 671 495 639T572 550T599 416Q599 384 596 352T585 289Q568 208 532 140T438 32T296 -9ZM300 102Q338 102 366 127T414
197T450 302Q459 336 463 368T467 426Q467 495 441 527T367 560Q327 560 298 535T248 465T212 360Q195 291 195 235Q195 165 224 134T300 102Z" />
<glyph unicode="1" glyph-name="one" horiz-adv-x="399" d="M117 0L209 407Q214 426 218 444T228 480T240 516Q218 497 189 480T128 450T69 432L84 553Q116 561 156 578T233 618T293 660H405L252 0H117Z" />
<glyph unicode="2" glyph-name="two" horiz-adv-x="564" d="M9 0L33 99Q103 146 170 192T290 284T375 377T407 472Q407 513 383 535T320 557Q267 557 234 521T190 423L76 475Q98 563 162 616T332 670Q403 670 450 646T522 581T547 492Q547 425 515 370T431 268T319
182T202 108V107Q219 108 247 109T299 110H503L476 0H9Z" />
<glyph unicode="3" glyph-name="three" horiz-adv-x="565" d="M271 -10Q165 -10 103 43T28 182L160 213Q165 159 193 130T272 101Q304 101 326 115T361 153T374 204Q374 250 345 268T274 286Q268 286 262 286T249 284L271 382Q280 380 290 379T310 378Q344 378
367 390T403 424T416 477Q416 519 389 539T326 559Q280 559 255 536T216 472L99 521Q126 594 188 632T336 670Q402 670 449 650T523 592T550 501Q550 453 531 415T479 354T401 329L400 326Q447 318 478 286T509 199Q509 133 476 86T388 15T271 -10Z" />
<glyph unicode="4" glyph-name="four" horiz-adv-x="596" d="M277 0L312 155H16L39 255Q57 278 74 300T115 350L382 660H554L461 255H576L552 155H437L401 0H277ZM150 255H335L405 554L224 337Q207 317 188 297T150 255Z" />
<glyph unicode="5" glyph-name="five" horiz-adv-x="560" d="M265 -10Q203 -10 154 12T72 73T29 158L159 201Q163 175 174 152T209 114T272 99Q310 99 335 117T373 165T386 229Q386 279 356 303T279 328Q249 328 227 320T183 294L81 320L190 660H571L544 549H272L217
381Q240 401 271 412T339 424Q390 424 430 403T493 341T517 244Q517 170 486 113T398 23T265 -10Z" />
<glyph unicode="6" glyph-name="six" horiz-adv-x="585" d="M310 -11Q233 -11 178 21T95 111T66 250Q66 332 86 407T146 541T246 634T387 668Q468 668 524 629T595 513L473 467Q470 508 443 531T376 555Q334 555 303 534T250 478T216 400T198 313Q217 357 263
382T362 407Q444 407 494 358T544 228Q544 159 515 105T433 20T310 -11ZM309 96Q343 96 366 112T402 155T414 216Q414 259 387 285T312 311Q279 311 255 295T217 254T204 198Q204 175 211 156T233 124T267 104T309 96Z" />
<glyph unicode="7" glyph-name="seven" horiz-adv-x="565" d="M126 660H623L596 554Q511 479 451 394T351 210T288 0H148Q178 164 267 315T510 586L524 547H98L126 660Z" />
<glyph unicode="8" glyph-name="eight" horiz-adv-x="610" d="M303 -10Q233 -10 172 11T74 75T36 178Q36 228 56 265T116 326T212 358L210 349Q185 361 167 380T138 425T128 478Q128 538 158 581T238 647T353 670Q417 670 471 650T557 591T589 497Q589 430 550
383T440 321V331Q472 317 495 296T530 248T543 189Q543 126 512 82T426 14T303 -10ZM299 96Q350 96 379 123T408 195Q408 225 391 246T346 279T286 291Q253 291 228 279T189 244T174 191Q174 161 191 140T236 107T299 96ZM357 384Q387 384 409 397T445 431T458
480Q458 517 431 540T358 564Q327 564 304 552T269 518T257 469Q257 445 269 426T303 396T357 384Z" />
<glyph unicode="9" glyph-name="nine" horiz-adv-x="594" d="M253 -10Q163 -10 105 37T34 165L163 200Q166 173 178 151T211 114T264 100Q304 100 333 119T383 171T415 246T433 336Q422 306 399 287T347 257T286 247Q227 247 183 271T115 339T91 437Q91 504 122
556T208 639T333 670Q409 670 460 640T539 553T566 414Q566 334 547 258T489 122T391 26T253 -10ZM322 346Q356 346 380 361T418 403T432 461Q432 492 419 514T383 548T330 561Q296 561 272 546T234 506T220 448Q220 407 247 377T322 346Z" />
<glyph unicode=":" glyph-name="colon" horiz-adv-x="285" d="M179 352Q145 352 124 368T103 415Q103 455 126 478T188 502Q222 502 243 485T264 438Q264 398 241 375T179 352ZM96 -6Q62 -6 41 10T20 58Q20 97 43 120T106 144Q140 144 160 127T181 80Q181 40 158
17T96 -6Z" />
<glyph unicode=";" glyph-name="semicolon" horiz-adv-x="294" d="M109 152Q153 152 174 126T196 59Q196 14 172 -30T105 -107T3 -154L-30 -96Q8 -88 36 -73T84 -39T111 1L110 3Q104 -1 98 -2T81 -4Q54 -4 36 16T18 64Q18 103 43 127T109 152ZM193 509Q229 509
251 492T274 442Q274 400 249 375T183 349Q148 349 126 367T103 418Q103 460 128 484T193 509Z" />
<glyph unicode="&lt;" glyph-name="less" horiz-adv-x="594" d="M616 581L583 445L186 295L513 135L485 14L62 234L91 361L616 581Z" />
<glyph unicode="=" glyph-name="equal" horiz-adv-x="604" d="M589 469L566 368H93L115 469H589ZM540 258L517 157H44L67 258H540Z" />
<glyph unicode="&gt;" glyph-name="greater" horiz-adv-x="594" d="M-12 14L21 150L419 300L91 460L119 581L543 361L513 234L-12 14Z" />
<glyph unicode="?" glyph-name="question" horiz-adv-x="563" d="M192 210L227 361Q286 361 330 372T400 409T426 480Q426 518 400 537T335 556Q285 556 255 529T210 456L86 511Q102 555 136 591T223 648T348 669Q414 669 464 648T542 589T571 496Q571 435 544
391T464 321T339 289L318 210H192ZM224 -8Q189 -8 168 9T146 57Q146 97 170 121T235 145Q269 145 291 128T313 79Q313 39 289 16T224 -8Z" />
<glyph unicode="@" glyph-name="at" horiz-adv-x="926" d="M455 -188Q338 -188 247 -142T104 -10T52 198Q52 301 85 386T178 533T320 629T500 663Q587 663 656 638T775 564T851 448T877 299Q877 223 859 166T809 71T739 14T663 -5Q623 -5 595 9T554 49T542 110Q520
62 478 35T388 7Q342 7 307 30T252 97T232 199Q232 251 247 299T291 385T360 445T449 467Q497 467 534 441T583 359L605 458H725L656 159Q653 148 652 137T650 117Q650 90 662 80T695 69Q717 69 738 83T775 127T800 198T810 296Q810 367 788 422T724 516T625 575T496
596Q416 596 349 568T232 487T155 362T128 199Q128 95 173 24T295 -84T460 -121Q520 -121 562 -109T634 -81L657 -141Q632 -154 604 -164T539 -181T455 -188ZM440 98Q474 98 500 124T541 191T557 276Q557 307 547 328T518 362T473 375Q436 375 409 350T366 285T350
202Q350 169 360 146T391 111T440 98Z" />
<glyph unicode="A" glyph-name="A" horiz-adv-x="647" d="M-49 0L334 660H504L579 0H446L430 168H191L98 0H-49ZM246 269H423L398 546L246 269Z" />
<glyph unicode="B" glyph-name="B" horiz-adv-x="660" d="M24 0L177 660H456Q543 660 591 620T640 509Q640 459 621 422T568 360T492 327V326Q543 321 574 286T606 201Q606 107 540 54T357 0H24ZM184 103H337Q399 103 432 129T465 203Q465 227 455 243T425 267T373
276H224L184 103ZM248 381H382Q419 381 445 394T484 430T498 483Q498 521 474 537T412 553H287L248 381Z" />
<glyph unicode="C" glyph-name="C" horiz-adv-x="672" d="M351 -10Q271 -10 207 23T105 119T67 272Q67 353 90 425T157 552T266 638T414 670Q517 670 585 618T674 465L539 432Q530 497 498 527T408 557Q358 557 321 532T258 464T221 373T208 275Q208 221 227 183T280
124T360 103Q414 103 446 130T500 202L627 151Q585 76 519 33T351 -10Z" />
<glyph unicode="D" glyph-name="D" horiz-adv-x="696" d="M25 0L178 660H393Q483 660 544 626T636 532T668 392Q668 306 643 235T570 111T456 29T305 0H25ZM189 109H304Q357 109 398 132T468 196T511 285T526 387Q526 435 510 472T461 530T378 551H292L189 109Z" />
<glyph unicode="E" glyph-name="E" horiz-adv-x="615" d="M24 0L177 660H662L634 549H290L253 385H525L499 279H228L190 111H547L520 0H24Z" />
<glyph unicode="F" glyph-name="F" horiz-adv-x="584" d="M622 549H291L251 381H525L499 269H226L164 0H24L177 660H649L622 549Z" />
<glyph unicode="G" glyph-name="G" horiz-adv-x="700" d="M321 -9Q251 -9 193 25T100 122T66 274Q66 353 89 424T157 551T268 638T418 670Q485 670 540 649T632 584T682 473L549 444Q539 502 504 530T413 558Q366 558 328 536T263 475T222 389T207 286Q207 229
225 188T278 124T363 101Q406 101 437 115T490 156T521 219L528 245H358L381 343H663L578 0H482L514 150L527 136Q510 89 482 57T414 8T321 -9Z" />
<glyph unicode="H" glyph-name="H" horiz-adv-x="720" d="M733 660L580 0H440L593 660H733ZM317 660L164 0H24L177 660H317ZM604 389L578 277H158L184 389H604Z" />
<glyph unicode="I" glyph-name="I" horiz-adv-x="304" d="M317 660L164 0H24L177 660H317Z" />
<glyph unicode="J" glyph-name="J" horiz-adv-x="577" d="M239 -9Q153 -9 99 29T30 130T42 267L179 274Q150 192 170 148T250 103Q301 103 325 137T368 250L462 660H602L502 225Q491 178 473 136T425 62T350 10T239 -9Z" />
<glyph unicode="K" glyph-name="K" horiz-adv-x="657" d="M24 0L177 660H317L249 367L568 660H732L434 384L585 0H439L326 295L207 186L164 0H24Z" />
<glyph unicode="L" glyph-name="L" horiz-adv-x="584" d="M191 111H526L499 0H24L177 660H317L191 111Z" />
<glyph unicode="M" glyph-name="M" horiz-adv-x="870" d="M24 0L177 660H357L394 302L404 148H405L482 302L680 660H882L729 0H605L685 346L730 530H728L431 0H322L264 527H263L228 346L149 0H24Z" />
<glyph unicode="N" glyph-name="N" horiz-adv-x="720" d="M24 0L177 660H330L461 265L493 153H494L520 279L608 660H732L579 0H429L294 391L261 503H260L236 381L149 0H24Z" />
<glyph unicode="O" glyph-name="O" horiz-adv-x="722" d="M348 -10Q270 -10 207 24T106 122T68 278Q68 359 91 430T158 555T266 639T413 670Q491 670 554 636T654 538T692 382Q692 301 669 230T602 105T494 21T348 -10ZM356 103Q404 103 440 128T501 195T538 287T551
387Q551 442 533 479T483 537T405 557Q356 557 320 532T258 466T221 374T209 273Q209 219 227 181T277 123T356 103Z" />
<glyph unicode="P" glyph-name="P" horiz-adv-x="635" d="M24 0L177 660H403Q512 660 573 609T635 470Q635 399 602 345T508 260T364 229H153L178 338H367Q410 338 438 355T481 399T496 459Q496 501 470 526T387 551H291L164 0H24Z" />
<glyph unicode="Q" glyph-name="Q" horiz-adv-x="722" d="M447 -201Q397 -201 353 -183T282 -130T254 -43Q254 -26 256 -11T262 18L361 27Q353 6 353 -18Q353 -56 382 -73T459 -91Q492 -91 517 -84T563 -66L565 -172Q541 -187 511 -194T447 -201ZM348 -10Q270
-10 207 24T106 122T68 278Q68 359 91 430T158 555T266 639T413 670Q491 670 554 636T654 538T692 382Q692 301 669 230T602 105T494 21T348 -10ZM356 103Q404 103 440 128T501 195T538 287T551 387Q551 442 533 479T483 537T405 557Q356 557 320 532T258 466T221
374T209 273Q209 219 227 181T277 123T356 103Z" />
<glyph unicode="R" glyph-name="R" horiz-adv-x="653" d="M24 0L177 660H434Q529 660 584 612T640 477Q640 411 610 363T529 286T412 253L373 245H204L227 349H372Q414 349 442 364T486 407T501 467Q501 509 474 530T400 551H289L162 0H24ZM440 0L335 285L464
304L583 0H440Z" />
<glyph unicode="S" glyph-name="S" horiz-adv-x="628" d="M325 -10Q256 -10 197 10T91 68T15 164L106 242Q127 195 162 164T240 117T328 101Q363 101 386 113T422 144T435 185Q435 213 416 228T362 255L264 286Q196 308 153 352T109 464Q109 527 141 573T231 645T363
670Q462 670 529 633T636 524L542 448Q524 490 496 514T432 548T361 559Q325 559 302 549T266 520T254 480Q254 454 275 434T332 402L433 370Q506 347 543 307T580 203Q580 137 546 89T454 16T325 -10Z" />
<glyph unicode="T" glyph-name="T" horiz-adv-x="616" d="M686 660L659 549H447L321 0H182L308 549H94L121 660H686Z" />
<glyph unicode="U" glyph-name="U" horiz-adv-x="700" d="M321 -10Q228 -10 166 26T80 129T78 290L164 660H304L214 269Q203 215 214 178T257 122T333 103Q395 103 430 142T482 253L576 660H715L618 243Q590 122 518 56T321 -10Z" />
<glyph unicode="V" glyph-name="V" horiz-adv-x="637" d="M723 660L343 0H180L106 660H241L276 241L284 112L344 239L579 660H723Z" />
<glyph unicode="W" glyph-name="W" horiz-adv-x="958" d="M146 0L111 660H247L255 122L495 660H631L641 119L885 660H1037L696 0H538L530 359L537 518H534L467 358L302 0H146Z" />
<glyph unicode="X" glyph-name="X" d="M-46 0L257 344L124 660H276L358 442L534 660H692L408 335L552 0H401L313 231L122 0H-46Z" />
<glyph unicode="Y" glyph-name="Y" horiz-adv-x="609" d="M176 0L234 249L107 660H245L301 462L326 354L398 466L539 660H691L371 239L316 0H176Z" />
<glyph unicode="Z" glyph-name="Z" horiz-adv-x="602" d="M-13 0L12 110L462 551H108L134 660H647L621 551L171 109H542L516 0H-13Z" />
<glyph unicode="[" glyph-name="bracketleft" horiz-adv-x="372" d="M431 618H290L132 -67H272L249 -168H-13L192 719H453L431 618Z" />
<glyph unicode="\" glyph-name="backslash" horiz-adv-x="464" d="M113 718H234L362 -70H241L113 718Z" />
<glyph unicode="]" glyph-name="bracketright" horiz-adv-x="372" d="M-58 -67H82L241 618H101L124 719H385L180 -168H-81L-58 -67Z" />
<glyph unicode="^" glyph-name="asciicircum" horiz-adv-x="582" d="M50 355L342 726H461L580 355H461L380 631L180 355H50Z" />
<glyph unicode="_" glyph-name="underscore" horiz-adv-x="537" d="M462 -76L436 -189H-101L-75 -76H462Z" />
<glyph unicode="`" glyph-name="grave" horiz-adv-x="502" d="M391 741L426 571H330L263 741H391Z" />
<glyph unicode="a" glyph-name="a" horiz-adv-x="615" d="M214 -9Q163 -9 124 16T62 87T39 197Q39 258 56 314T105 415T183 484T283 510Q338 510 379 480T432 389L457 500H595L479 0H354L373 95Q349 47 307 19T214 -9ZM271 95Q299 95 323 112T364 158T392 222T403
295Q403 330 392 354T360 392T311 406Q269 406 239 377T192 303T175 210Q175 174 186 148T218 109T271 95Z" />
<glyph unicode="b" glyph-name="b" horiz-adv-x="605" d="M400 509Q449 509 486 485T545 416T567 304Q567 243 550 187T500 86T425 16T329 -10Q270 -10 227 21T172 110L145 0H10L176 718H314L245 419Q269 460 310 484T400 509ZM296 94Q336 94 366 123T413 198T430
291Q430 328 419 353T387 391T338 404Q297 404 267 376T220 302T203 204Q203 155 227 125T296 94Z" />
<glyph unicode="c" glyph-name="c" horiz-adv-x="543" d="M275 -10Q202 -10 150 19T69 100T41 215Q41 298 74 365T168 471T314 510Q377 510 424 488T500 427T531 336L397 313Q396 355 377 381T312 407Q272 407 241 378T193 303T176 207Q176 173 188 147T223 106T278
91Q308 91 334 111T372 165L497 123Q470 61 412 26T275 -10Z" />
<glyph unicode="d" glyph-name="d" horiz-adv-x="616" d="M214 -9Q164 -9 124 16T62 87T39 198Q39 258 56 314T105 415T183 484T284 510Q338 510 380 480T433 389L508 718H646L480 0H355L373 95Q350 47 308 19T214 -9ZM271 95Q299 95 323 112T366 157T394 222T404
295Q404 330 393 354T361 392T311 406Q270 406 239 377T192 303T175 210Q175 174 186 148T218 109T271 95Z" />
<glyph unicode="e" glyph-name="e" horiz-adv-x="565" d="M272 -9Q202 -9 150 19T70 98T41 215Q41 298 74 364T168 470T313 509Q380 509 427 483T500 409T525 298Q525 276 522 255T513 215H126L127 297H429L387 272Q390 284 391 294T393 317Q393 346 383 366T354
398T308 409Q270 409 244 391T201 344T178 279T171 209Q171 173 184 147T222 106T280 91Q320 91 344 109T384 156L497 107Q469 53 410 22T272 -9Z" />
<glyph unicode="f" glyph-name="f" horiz-adv-x="395" d="M50 0L180 563Q201 655 254 692T387 729Q420 729 447 722T491 704L457 612Q448 618 433 622T399 626Q360 626 340 609T310 549L294 480L293 453L188 0H50ZM53 398L77 500H438L414 398H53Z" />
<glyph unicode="g" glyph-name="g" horiz-adv-x="608" d="M205 -215Q147 -215 98 -195T19 -136T-16 -39L123 -19Q127 -66 148 -93T221 -120Q250 -120 274 -108T316 -68T346 9L380 156L389 159Q373 89 328 51T218 12Q167 12 127 37T63 108T39 215Q39 275 56 328T106
422T182 486T282 510Q324 510 359 492T415 437T435 346L417 328L457 500H595L482 16Q455 -102 389 -158T205 -215ZM275 115Q313 115 341 140T386 207T402 297Q402 331 391 355T358 392T308 406Q269 406 239 381T192 315T176 228Q176 179 201 147T275 115Z" />
<glyph unicode="h" glyph-name="h" horiz-adv-x="595" d="M10 0L176 718H314L238 389L222 371Q242 432 290 471T410 510Q460 510 496 487T546 419T547 315L475 0H337L405 297Q417 346 398 374T337 402Q304 402 279 386T237 341T210 269L148 0H10Z" />
<glyph unicode="i" glyph-name="i" horiz-adv-x="275" d="M264 500L148 0H10L126 500H264ZM221 570Q184 570 163 586T145 637Q149 678 172 697T234 716Q273 716 293 700T311 650Q308 608 285 589T221 570Z" />
<glyph unicode="j" glyph-name="j" horiz-adv-x="269" d="M-44 -215Q-77 -215 -110 -207T-165 -181L-130 -86Q-120 -94 -105 -100T-73 -107Q-43 -107 -29 -90T-4 -30L120 500H258L131 -51Q111 -136 67 -175T-44 -215ZM471 570Q434 570 413 586T395 637Q399 678
422 697T484 716Q523 716 543 700T561 650Q558 608 535 589T471 570Z" />
<glyph unicode="k" glyph-name="k" horiz-adv-x="579" d="M614 500L340 261L321 252L141 94L156 232L448 500H614ZM314 718L148 0H10L176 718H314ZM373 341L515 0H377L273 263L373 341Z" />
<glyph unicode="l" glyph-name="l" horiz-adv-x="316" d="M166 -8Q87 -8 58 39T46 162L174 718H312L184 163Q176 126 187 109T229 92Q251 92 264 96L237 3Q222 -4 206 -6T166 -8Z" />
<glyph unicode="m" glyph-name="m" horiz-adv-x="921" d="M10 0L126 500H248L225 355L216 366Q236 436 287 473T407 510Q459 510 495 486T545 418T545 309L473 0H335L404 296Q416 346 397 374T338 402Q304 402 279 386T237 341T211 269L148 0H10ZM660 0L729 296Q740
345 723 373T663 402Q630 402 605 387T563 342T535 269L527 353Q553 431 608 470T730 510Q783 510 819 486T870 417T870 309L798 0H660Z" />
<glyph unicode="n" glyph-name="n" horiz-adv-x="596" d="M10 0L126 500H248L224 355L216 366Q236 436 287 473T406 510Q460 510 496 486T547 418T547 311L475 0H337L405 297Q417 346 398 374T337 402Q304 402 279 386T237 341T210 269L148 0H10Z" />
<glyph unicode="o" glyph-name="o" horiz-adv-x="585" d="M274 -10Q201 -10 149 20T69 101T41 215Q41 298 73 365T167 471T312 510Q385 510 437 480T517 400T545 285Q545 203 512 136T419 30T274 -10ZM276 91Q315 91 345 120T392 196T409 293Q409 344 384 376T309
409Q270 409 241 380T194 304T176 207Q176 173 187 147T221 106T276 91Z" />
<glyph unicode="p" glyph-name="p" horiz-adv-x="605" d="M-39 -210L125 500H249L221 344L210 345Q227 421 280 465T402 509Q450 509 487 485T545 416T567 306Q567 244 550 187T500 86T425 16T328 -10Q286 -10 250 7T192 59T168 147L187 173L99 -210H-39ZM297
94Q337 94 366 123T413 198T431 292Q431 328 420 353T387 391T336 404Q297 404 267 376T219 302T202 204Q202 155 226 125T297 94Z" />
<glyph unicode="q" glyph-name="q" horiz-adv-x="615" d="M297 -210L379 149L387 142Q368 72 322 32T214 -9Q164 -9 125 15T62 86T39 197Q39 259 56 315T106 416T184 485T283 510Q326 510 360 492T414 439T434 351L419 333L457 500H595L431 -210H297ZM270 95Q309
95 338 124T385 199T403 295Q403 330 392 354T360 392T311 406Q270 406 239 377T192 303T175 210Q175 174 186 148T218 109T270 95Z" />
<glyph unicode="r" glyph-name="r" horiz-adv-x="402" d="M10 0L126 500H247L221 339L213 352Q236 424 283 467T395 510Q411 510 422 508T443 501L407 382Q398 387 385 389T353 392Q321 392 292 377T240 330T204 245L148 0H10Z" />
<glyph unicode="s" glyph-name="s" horiz-adv-x="508" d="M246 -11Q192 -11 145 5T60 51T1 122L83 187Q106 141 146 114T236 87Q273 87 293 101T313 141Q313 158 302 170T266 190L200 210Q132 231 101 265T69 351Q69 399 95 434T166 490T273 510Q322 510 364 497T438
460T490 399L412 332Q394 368 358 390T276 413Q239 413 220 400T201 363Q201 341 217 331T252 314L345 285Q396 269 423 237T451 159Q451 81 395 35T246 -11Z" />
<glyph unicode="t" glyph-name="t" horiz-adv-x="411" d="M238 -9Q154 -9 111 37T88 173L188 610L336 649L226 174Q216 132 235 112T290 92Q312 92 327 97T354 109L351 17Q325 2 297 -3T238 -9ZM48 398L72 500H437L412 398H48Z" />
<glyph unicode="u" glyph-name="u" horiz-adv-x="594" d="M181 -9Q129 -9 92 14T38 82T37 187L110 500H248L180 205Q168 154 188 127T250 99Q284 99 307 115T347 161T373 231L435 500H573L457 0H335L359 145L368 133Q346 64 296 28T181 -9Z" />
<glyph unicode="v" glyph-name="v" horiz-adv-x="519" d="M422 500H577L283 0H122L58 500H194L226 43L197 49L422 500Z" />
<glyph unicode="w" glyph-name="w" horiz-adv-x="841" d="M98 0L66 500H200L212 123L397 500H534L562 120L741 500H887L626 0H466L436 340L262 0H98Z" />
<glyph unicode="x" glyph-name="x" horiz-adv-x="553" d="M-47 0L208 279L250 276L429 500H590L345 230L297 228L120 0H-47ZM333 0L243 233L201 236L78 500H229L308 273L351 276L483 0H333Z" />
<glyph unicode="y" glyph-name="y" horiz-adv-x="530" d="M30 -215Q-11 -215 -43 -206T-95 -180L-53 -81Q-36 -95 -16 -102T28 -110Q58 -110 80 -96T119 -54L147 -6L63 500H203L226 219L234 100L292 215L440 500H589L254 -60Q224 -111 192 -145T120 -197T30 -215Z" />
<glyph unicode="z" glyph-name="z" horiz-adv-x="501" d="M-13 0L9 90L274 354L329 402L250 400H76L99 500H511L489 408L240 161L171 98L265 100H436L412 0H-13Z" />
<glyph unicode="{" glyph-name="braceleft" horiz-adv-x="384" d="M247 -190Q148 -190 104 -149T78 -28L112 121Q125 179 105 203T37 228H30L51 322H72Q114 322 140 341T178 407L222 599Q238 670 285 705T417 741H465L445 650H428Q385 650 362 631T328 569L286
385Q276 339 246 309T169 271Q210 260 226 229T232 151L193 -19Q184 -61 202 -80T262 -102H271L251 -190H247Z" />
<glyph unicode="|" glyph-name="bar" horiz-adv-x="290" d="M314 719L108 -168H-13L192 719H314Z" />
<glyph unicode="}" glyph-name="braceright" horiz-adv-x="384" d="M-81 -190L-61 -101H-45Q1 -101 24 -81T56 -19L98 166Q109 212 139 242T215 280Q174 291 158 322T152 401L191 568Q201 610 183 630T125 650H112L133 741H157Q242 741 283 701T308 587L272 430Q260
373 280 348T348 322H354L332 228H312Q270 228 244 209T206 143L162 -49Q146 -119 100 -154T-28 -190H-81Z" />
<glyph unicode="~" glyph-name="asciitilde" horiz-adv-x="572" d="M566 412Q553 346 525 308T462 252T390 235Q356 235 334 245T293 269T258 292T218 303Q196 303 178 287T151 238H41Q54 302 81 341T146 397T223 415Q253 415 275 405T314 381T349 357T390 347Q437
347 457 412H566Z" />
<glyph unicode="&#xa0;" glyph-name="uni00A0" horiz-adv-x="302" />
<glyph unicode="&#xa1;" glyph-name="exclamdown" horiz-adv-x="285" d="M199 289L168 80L112 -160H-33L23 80L89 289H199ZM178 509Q214 509 235 492T257 444Q257 403 233 380T168 356Q133 356 111 373T89 421Q89 462 114 485T178 509Z" />
<glyph unicode="&#xa2;" glyph-name="cent" horiz-adv-x="560" d="M275 -10Q204 -10 153 19T73 100T45 216Q45 304 78 370T172 473T313 510Q378 510 426 487T501 425T534 336L414 316Q414 360 388 389T312 419Q267 419 234 391T183 317T164 213Q164 176 177 146T217
99T281 82Q317 82 345 102T387 164L501 126Q476 63 416 27T275 -10ZM164 -100L326 600H416L255 -100H164Z" />
<glyph unicode="&#xa3;" glyph-name="sterling" horiz-adv-x="603" d="M74 274L91 345H471L455 274H74ZM405 -10Q362 -10 330 2T271 31T222 67T176 97T126 109Q110 109 100 101T90 79Q90 65 98 57T124 49Q150 49 168 70T196 124T206 195Q206 244 196 284T175 364T165
449Q165 514 195 564T277 642T392 670Q450 670 496 649T569 587T596 487L479 460Q477 506 456 536T390 566Q358 566 334 551T297 508T284 444Q284 411 289 380T299 314T305 240Q305 192 292 147T253 67T194 11T118 -10Q75 -10 47 13T18 75Q18 117 50 143T130 169Q161
169 189 161T242 140T292 115T342 94T394 85Q426 85 445 106T472 176L563 155Q558 101 536 64T479 9T405 -10Z" />
<glyph unicode="&#xa4;" glyph-name="currency" horiz-adv-x="648" d="M344 537Q405 537 451 511T522 438T548 331Q548 270 522 223T450 148T342 121Q281 121 235 147T163 221T136 329Q136 390 162 436T236 510T344 537ZM343 435Q300 435 273 405T246 329Q246
282 273 253T342 224Q385 224 411 254T438 331Q438 377 412 406T343 435ZM152 607L276 470L206 401L71 526L152 607ZM204 259L273 189L149 51L69 132L204 259ZM481 255L613 132L532 51L411 185L481 255ZM535 607L615 526L484 401L414 472L535 607Z" />
<glyph unicode="&#xa5;" glyph-name="yen" horiz-adv-x="628" d="M190 0L218 117H49L61 173H231L247 243H78L92 301H192L247 297L116 660H246L312 437L337 341H339L395 438L540 660H695L407 296L460 301H561L547 243H378L362 173H531L519 117H349L321 0H190Z" />
<glyph unicode="&#xa6;" glyph-name="brokenbar" horiz-adv-x="291" d="M314 719L228 344H106L192 719H314ZM196 206L108 -168H-13L74 206H196Z" />
<glyph unicode="&#xa7;" glyph-name="section" horiz-adv-x="601" d="M263 -111Q209 -111 159 -96T70 -51T10 24L100 81Q122 36 166 8T274 -20Q320 -20 346 -1T373 49Q373 73 358 87T302 114L184 152Q136 168 104 187T54 234T37 303Q37 370 86 405T210 443L243
387Q188 384 164 367T140 321Q140 303 148 289T175 265T223 246L350 208Q416 188 450 157T485 76Q485 23 459 -19T383 -86T263 -111ZM395 116L368 175Q412 175 442 191T472 241Q472 265 454 279T401 305L259 350Q204 367 174 400T143 490Q143 543 169 583T245 646T360
669Q408 669 453 658T536 619T602 545L513 487Q486 533 447 553T354 574Q324 574 303 565T271 540T260 504Q260 477 275 461T339 431L437 402Q506 382 541 349T576 264Q576 220 554 186T492 133T395 116Z" />
<glyph unicode="&#xa8;" glyph-name="dieresis" horiz-adv-x="502" d="M439 564Q409 564 390 579T371 622Q371 662 394 682T453 702Q484 702 502 688T521 645Q521 604 499 584T439 564ZM226 564Q196 564 178 579T159 622Q159 662 181 682T241 702Q271 702 290
688T309 645Q309 604 287 584T226 564Z" />
<glyph unicode="&#xa9;" glyph-name="copyright" horiz-adv-x="787" d="M412 -10Q312 -10 235 34T113 154T69 330Q69 429 113 505T234 626T412 670Q514 670 591 627T711 507T755 330Q755 231 712 155T591 34T412 -10ZM412 66Q491 66 550 100T642 194T675 330Q675
406 642 466T550 560T412 594Q334 594 275 560T182 466T149 330Q149 254 182 195T274 101T412 66ZM418 140Q330 140 280 190T230 329Q230 416 280 467T418 518Q483 518 525 490T585 412L502 372Q491 399 472 410T421 422Q380 422 357 398T333 329Q333 285 357 260T422
235Q452 235 473 247T506 289L586 252Q565 195 524 168T418 140Z" />
<glyph unicode="&#xaa;" glyph-name="ordfeminine" horiz-adv-x="398" d="M180 313Q133 313 102 349T71 448Q71 505 91 554T149 633T237 663Q261 663 282 652T315 615T326 548L311 524L342 657H445L365 321H274L305 473L306 434Q292 375 257 344T180 313ZM19 168L37
244H357L339 168H19ZM226 390Q250 390 267 410T294 461T303 520Q303 549 290 567T254 586Q227 586 209 566T182 515T173 458Q173 429 186 410T226 390Z" />
<glyph unicode="&#xab;" glyph-name="guillemotleft" horiz-adv-x="545" d="M340 461L139 231L142 313L242 69H123L42 265L213 461H340ZM554 461L353 231L356 313L456 69H337L256 265L427 461H554Z" />
<glyph unicode="&#xac;" glyph-name="logicalnot" horiz-adv-x="604" d="M559 316L512 110H397L443 316H559ZM573 374L549 270H65L89 374H573Z" />
<glyph unicode="&#xad;" glyph-name="uni00AD" horiz-adv-x="0" />
<glyph unicode="&#xae;" glyph-name="registered" horiz-adv-x="790" d="M414 670Q518 670 595 628T714 509T757 330Q757 228 715 152T595 33T414 -10Q310 -10 233 32T113 151T70 330Q70 433 112 509T232 627T414 670ZM363 514V148H275V514H363ZM472 318L585 148H480L396
295L472 318ZM414 594Q334 594 275 562T183 470T150 330Q150 250 182 191T274 99T414 66Q493 66 552 98T643 190T676 330Q676 411 644 470T552 561T414 594ZM443 514Q501 514 538 482T576 396Q576 340 538 309T435 278H327V339H427Q455 339 471 352T487 391Q487
418 471 430T427 443H327V514H443Z" />
<glyph unicode="&#xaf;" glyph-name="overscore" horiz-adv-x="502" d="M518 669L498 578H155L177 669H518Z" />
<glyph unicode="&#xb0;" glyph-name="degree" horiz-adv-x="463" d="M288 314Q230 314 188 336T122 399T98 493Q98 546 121 586T187 648T288 670Q345 670 387 648T454 586T478 493Q478 439 454 399T388 337T288 314ZM288 407Q326 407 350 431T374 493Q374 530
350 554T288 578Q250 578 226 554T201 493Q201 455 225 431T288 407Z" />
<glyph unicode="&#xb1;" glyph-name="plusminus" horiz-adv-x="594" d="M442 647L333 173H228L337 647H442ZM589 461L565 360H79L103 461H589ZM506 99L482 1H-4L20 99H506Z" />
<glyph unicode="&#xb2;" glyph-name="uni00B2" horiz-adv-x="371" d="M63 334L80 405Q122 429 162 453T236 502T289 553T309 607Q309 633 297 643T265 654Q238 654 221 634T197 579L104 610Q117 668 159 702T273 736Q340 736 376 704T413 626Q413 584 394 552T345
496T279 452T211 414V413Q225 414 243 414T277 415H386L367 334H63Z" />
<glyph unicode="&#xb3;" glyph-name="uni00B3" horiz-adv-x="357" d="M220 327Q151 327 109 359T60 446L157 465Q160 435 175 420T218 404Q243 404 258 419T273 458Q273 480 260 491T220 502Q215 502 211 502T201 500L217 563Q222 562 228 561T241 560Q269 560
283 574T297 612Q297 633 284 644T249 655Q228 655 213 643T191 608L102 641Q117 684 156 710T259 736Q320 736 359 709T399 633Q399 591 375 562T308 529L307 527Q336 524 355 506T375 453Q375 413 354 385T297 342T220 327Z" />
<glyph unicode="&#xb4;" glyph-name="acute" horiz-adv-x="600" d="M382 741H521L375 571H268L382 741Z" />
<glyph unicode="&#xb5;" glyph-name="uni00B5" horiz-adv-x="611" d="M-39 -210L125 500H263L195 205Q184 154 204 127T266 99Q299 99 323 114T363 159T390 231L452 500H590L474 0H352L367 90Q341 42 299 17T203 -9Q174 -9 145 1T93 36L166 71L99 -210H-39Z" />
<glyph unicode="&#xb6;" glyph-name="paragraph" horiz-adv-x="718" d="M215 -100L280 181Q242 183 205 197T138 237T91 304T73 396Q73 480 110 539T216 629T376 660H735L559 -100H446L596 553H481L331 -100H215ZM302 291L363 553H335Q291 553 258 537T205 487T185
404Q185 355 216 323T302 291Z" />
<glyph unicode="&#xb7;" glyph-name="middot" horiz-adv-x="264" d="M152 274Q116 274 94 292T71 342Q71 384 95 409T162 435Q198 435 220 417T242 366Q242 324 217 299T152 274Z" />
<glyph unicode="&#xb8;" glyph-name="cedilla" horiz-adv-x="504" d="M156 6L201 28Q252 14 280 -15T308 -87Q308 -128 289 -156T239 -200T171 -216Q134 -216 106 -204T61 -173L100 -109Q113 -122 131 -128T167 -135Q194 -135 211 -118T228 -75Q228 -48 210 -29T156 6Z" />
<glyph unicode="&#xb9;" glyph-name="uni00B9" horiz-adv-x="264" d="M131 334L183 561Q186 571 190 585T197 611T201 624Q179 608 148 596T93 580L108 665Q131 670 156 680T205 703T244 730H326L234 334H131Z" />
<glyph unicode="&#xba;" glyph-name="ordmasculine" horiz-adv-x="391" d="M234 313Q163 313 122 353T81 460Q81 515 103 561T168 635T268 663Q339 663 379 623T420 517Q420 464 398 418T335 342T234 313ZM18 168L36 244H353L335 168H18ZM238 388Q264 388 282
409T309 461T318 523Q318 553 304 570T264 588Q239 588 221 567T193 515T184 453Q184 423 198 406T238 388Z" />
<glyph unicode="&#xbb;" glyph-name="guillemotright" horiz-adv-x="543" d="M-14 69L180 295L183 214L83 461H200L283 265L113 69H-14ZM200 69L394 295L397 214L297 461H414L497 265L327 69H200Z" />
<glyph unicode="&#xbc;" glyph-name="onequarter" horiz-adv-x="809" d="M372 525L424 752Q427 762 431 776T438 802T442 815Q420 799 389 787T334 771L349 856Q372 861 397 871T446 894T485 921H567L475 525H372ZM51 0L663 661H774L161 0H51ZM581 -3L602 87H428L445
153Q454 165 460 172T474 189T498 220L641 393H762L707 156H776L760 87H691L671 -3H581ZM533 156H618L656 317L559 187Q554 180 550 176T543 167T533 156Z" />
<glyph unicode="&#xbd;" glyph-name="onehalf" horiz-adv-x="896" d="M372 525L424 752Q427 762 431 776T438 802T442 815Q420 799 389 787T334 771L349 856Q372 861 397 871T446 894T485 921H567L475 525H372ZM51 0L663 661H774L161 0H51ZM509 -3L526 68Q568
92 608 116T682 165T735 216T755 270Q755 296 743 306T711 317Q684 317 667 297T643 242L550 273Q563 331 605 365T719 399Q786 399 822 367T859 289Q859 247 840 215T791 159T725 115T657 77V76Q671 77 689 77T723 78H832L813 -3H509Z" />
<glyph unicode="&#xbe;" glyph-name="threequarters" horiz-adv-x="902" d="M461 518Q392 518 350 550T301 637L398 656Q401 626 416 611T459 595Q484 595 499 610T514 649Q514 671 501 682T461 693Q456 693 452 693T442 691L458 754Q463 753 469 752T482 751Q510
751 524 765T538 803Q538 824 525 835T490 846Q469 846 454 834T432 799L343 832Q358 875 397 901T500 927Q561 927 600 900T640 824Q640 782 616 753T549 720L548 718Q577 715 596 697T616 644Q616 604 595 576T538 533T461 518ZM144 0L756 661H867L254 0H144ZM674
-3L695 87H521L538 153Q547 165 553 172T567 189T591 220L734 393H855L800 156H869L853 87H784L764 -3H674ZM626 156H711L749 317L652 187Q647 180 643 176T636 167T626 156Z" />
<glyph unicode="&#xbf;" glyph-name="questiondown" horiz-adv-x="563" d="M359 291L324 140Q265 140 221 129T151 91T125 21Q125 -17 151 -36T217 -56Q266 -56 296 -29T342 44L466 -11Q450 -55 416 -90T329 -147T203 -168Q137 -168 87 -148T9 -88T-20 4Q-20 66
8 110T88 180T212 211L233 291H359ZM327 509Q362 509 383 492T405 444Q405 404 381 380T317 355Q282 355 261 372T239 421Q239 461 263 485T327 509Z" />
<glyph unicode="&#xc0;" glyph-name="Agrave" horiz-adv-x="647" d="M-49 0L334 660H504L579 0H446L430 168H191L98 0H-49ZM246 269H423L398 546L246 269ZM460 891L493 730H402L336 891H460Z" />
<glyph unicode="&#xc1;" glyph-name="Aacute" horiz-adv-x="647" d="M-49 0L334 660H504L579 0H446L430 168H191L98 0H-49ZM246 269H423L398 546L246 269ZM464 891H598L474 730H368L464 891Z" />
<glyph unicode="&#xc2;" glyph-name="Acircumflex" horiz-adv-x="647" d="M-49 0L334 660H504L579 0H446L430 168H191L98 0H-49ZM246 269H423L398 546L246 269ZM535 891L601 730H506L456 826L364 730H257L398 891H535Z" />
<glyph unicode="&#xc3;" glyph-name="Atilde" horiz-adv-x="647" d="M-49 0L334 660H504L579 0H446L430 168H191L98 0H-49ZM246 269H423L398 546L246 269ZM633 876Q621 802 584 765T501 727Q475 727 458 736T428 758T404 780T378 790Q361 790 350 773T331 728H250Q262
802 298 839T381 877Q405 877 421 868T451 846T477 824T505 814Q520 814 532 830T551 876H633Z" />
<glyph unicode="&#xc4;" glyph-name="Adieresis" horiz-adv-x="647" d="M-49 0L334 660H504L579 0H446L430 168H191L98 0H-49ZM246 269H423L398 546L246 269ZM541 724Q511 724 492 739T473 782Q473 822 496 842T555 862Q586 862 604 848T623 805Q623 764 601 744T541
724ZM328 724Q298 724 280 739T261 782Q261 822 283 842T343 862Q373 862 392 848T411 805Q411 764 389 744T328 724Z" />
<glyph unicode="&#xc5;" glyph-name="Aring" horiz-adv-x="647" d="M-49 0L334 660H504L579 0H446L430 168H191L98 0H-49ZM246 269H423L398 546L246 269ZM432 842Q489 842 523 811T558 732Q558 674 520 636T422 598Q365 598 330 629T294 708Q294 767 333 804T432
842ZM430 777Q405 777 387 761T369 714Q369 691 385 677T424 663Q449 663 466 680T484 726Q484 748 470 762T430 777Z" />
<glyph unicode="&#xc6;" glyph-name="AE" horiz-adv-x="914" d="M-55 0L399 660H959L933 553H625L587 383H823L799 281H563L523 107H846L819 0H366L413 203H231L98 0H-55ZM291 301H437L495 556H465L291 301Z" />
<glyph unicode="&#xc7;" glyph-name="Ccedilla" horiz-adv-x="672" d="M351 -10Q271 -10 207 23T105 119T67 272Q67 353 90 425T157 552T266 638T414 670Q517 670 585 618T674 465L539 432Q530 497 498 527T408 557Q358 557 321 532T258 464T221 373T208 275Q208
221 227 183T280 124T360 103Q414 103 446 130T500 202L627 151Q585 76 519 33T351 -10ZM267 6L312 28Q363 14 391 -15T419 -87Q419 -128 400 -156T350 -200T282 -216Q245 -216 217 -204T172 -173L211 -109Q224 -122 242 -128T278 -135Q305 -135 322 -118T339 -75Q339
-48 321 -29T267 6Z" />
<glyph unicode="&#xc8;" glyph-name="Egrave" horiz-adv-x="615" d="M24 0L177 660H662L634 549H290L253 385H525L499 279H228L190 111H547L520 0H24ZM447 891L480 730H389L323 891H447Z" />
<glyph unicode="&#xc9;" glyph-name="Eacute" horiz-adv-x="615" d="M24 0L177 660H662L634 549H290L253 385H525L499 279H228L190 111H547L520 0H24ZM461 891H595L471 730H365L461 891Z" />
<glyph unicode="&#xca;" glyph-name="Ecircumflex" horiz-adv-x="615" d="M24 0L177 660H662L634 549H290L253 385H525L499 279H228L190 111H547L520 0H24ZM535 891L601 730H506L456 826L364 730H257L398 891H535Z" />
<glyph unicode="&#xcb;" glyph-name="Edieresis" horiz-adv-x="615" d="M24 0L177 660H662L634 549H290L253 385H525L499 279H228L190 111H547L520 0H24ZM540 724Q510 724 491 739T472 782Q472 822 495 842T554 862Q585 862 603 848T622 805Q622 764 600 744T540
724ZM327 724Q297 724 279 739T260 782Q260 822 282 842T342 862Q372 862 391 848T410 805Q410 764 388 744T327 724Z" />
<glyph unicode="&#xcc;" glyph-name="Igrave" horiz-adv-x="304" d="M317 660L164 0H24L177 660H317ZM276 891L309 730H218L152 891H276Z" />
<glyph unicode="&#xcd;" glyph-name="Iacute" horiz-adv-x="304" d="M317 660L164 0H24L177 660H317ZM303 891H437L313 730H207L303 891Z" />
<glyph unicode="&#xce;" glyph-name="Icircumflex" horiz-adv-x="304" d="M317 660L164 0H24L177 660H317ZM367 891L433 730H338L288 826L196 730H89L230 891H367Z" />
<glyph unicode="&#xcf;" glyph-name="Idieresis" horiz-adv-x="292" d="M355 724Q326 724 308 739T289 781Q289 819 310 840T371 862Q401 862 419 848T437 806Q437 768 416 746T355 724ZM165 724Q136 724 118 739T99 781Q99 819 120 840T181 862Q211 862 228 848T246
806Q246 768 225 746T165 724ZM314 660L161 0H22L175 660H314Z" />
<glyph unicode="&#xd0;" glyph-name="Eth" horiz-adv-x="728" d="M18 280L41 382H422L399 280H18ZM47 0L200 660H415Q505 660 566 626T658 532T690 392Q690 306 665 235T592 111T478 29T327 0H47ZM211 109H326Q379 109 420 132T490 196T533 285T548 387Q548 435
532 472T483 530T400 551H314L211 109Z" />
<glyph unicode="&#xd1;" glyph-name="Ntilde" horiz-adv-x="720" d="M24 0L177 660H330L461 265L493 153H494L520 279L608 660H732L579 0H429L294 391L261 503H260L236 381L149 0H24ZM669 876Q657 802 620 765T537 727Q511 727 494 736T464 758T440 780T414 790Q397
790 386 773T367 728H286Q298 802 334 839T417 877Q441 877 457 868T487 846T513 824T541 814Q556 814 568 830T587 876H669Z" />
<glyph unicode="&#xd2;" glyph-name="Ograve" horiz-adv-x="722" d="M348 -10Q270 -10 207 24T106 122T68 278Q68 359 91 430T158 555T266 639T413 670Q491 670 554 636T654 538T692 382Q692 301 669 230T602 105T494 21T348 -10ZM356 103Q404 103 440 128T501
195T538 287T551 387Q551 442 533 479T483 537T405 557Q356 557 320 532T258 466T221 374T209 273Q209 219 227 181T277 123T356 103ZM464 891L497 730H406L340 891H464Z" />
<glyph unicode="&#xd3;" glyph-name="Oacute" horiz-adv-x="722" d="M348 -10Q270 -10 207 24T106 122T68 278Q68 359 91 430T158 555T266 639T413 670Q491 670 554 636T654 538T692 382Q692 301 669 230T602 105T494 21T348 -10ZM356 103Q404 103 440 128T501
195T538 287T551 387Q551 442 533 479T483 537T405 557Q356 557 320 532T258 466T221 374T209 273Q209 219 227 181T277 123T356 103ZM480 891H614L490 730H384L480 891Z" />
<glyph unicode="&#xd4;" glyph-name="Ocircumflex" horiz-adv-x="722" d="M348 -10Q270 -10 207 24T106 122T68 278Q68 359 91 430T158 555T266 639T413 670Q491 670 554 636T654 538T692 382Q692 301 669 230T602 105T494 21T348 -10ZM356 103Q404 103 440 128T501
195T538 287T551 387Q551 442 533 479T483 537T405 557Q356 557 320 532T258 466T221 374T209 273Q209 219 227 181T277 123T356 103ZM552 891L618 730H523L473 826L381 730H274L415 891H552Z" />
<glyph unicode="&#xd5;" glyph-name="Otilde" horiz-adv-x="722" d="M348 -10Q270 -10 207 24T106 122T68 278Q68 359 91 430T158 555T266 639T413 670Q491 670 554 636T654 538T692 382Q692 301 669 230T602 105T494 21T348 -10ZM356 103Q404 103 440 128T501
195T538 287T551 387Q551 442 533 479T483 537T405 557Q356 557 320 532T258 466T221 374T209 273Q209 219 227 181T277 123T356 103ZM650 876Q638 802 601 765T518 727Q492 727 475 736T445 758T421 780T395 790Q378 790 367 773T348 728H267Q279 802 315 839T398
877Q422 877 438 868T468 846T494 824T522 814Q537 814 549 830T568 876H650Z" />
<glyph unicode="&#xd6;" glyph-name="Odieresis" horiz-adv-x="722" d="M348 -10Q270 -10 207 24T106 122T68 278Q68 359 91 430T158 555T266 639T413 670Q491 670 554 636T654 538T692 382Q692 301 669 230T602 105T494 21T348 -10ZM356 103Q404 103 440 128T501
195T538 287T551 387Q551 442 533 479T483 537T405 557Q356 557 320 532T258 466T221 374T209 273Q209 219 227 181T277 123T356 103ZM557 724Q527 724 508 739T489 782Q489 822 512 842T571 862Q602 862 620 848T639 805Q639 764 617 744T557 724ZM344 724Q314
724 296 739T277 782Q277 822 299 842T359 862Q389 862 408 848T427 805Q427 764 405 744T344 724Z" />
<glyph unicode="&#xd7;" glyph-name="multiply" horiz-adv-x="604" d="M104 86L38 173L516 560L583 474L104 86ZM422 86L112 492L197 560L508 154L422 86Z" />
<glyph unicode="&#xd8;" glyph-name="Oslash" horiz-adv-x="722" d="M230 115L192 161L531 552L565 502L230 115ZM32 -15L163 133L203 89L109 -15H32ZM579 514L554 573L646 677H723L579 514ZM348 -10Q270 -10 207 24T106 122T68 278Q68 359 91 430T158 555T266
639T413 670Q491 670 554 636T654 538T692 382Q692 301 669 230T602 105T494 21T348 -10ZM356 103Q404 103 440 128T501 195T538 287T551 387Q551 442 533 479T483 537T405 557Q356 557 320 532T258 466T221 374T209 273Q209 219 227 181T277 123T356 103Z" />
<glyph unicode="&#xd9;" glyph-name="Ugrave" horiz-adv-x="700" d="M321 -10Q228 -10 166 26T80 129T78 290L164 660H304L214 269Q203 215 214 178T257 122T333 103Q395 103 430 142T482 253L576 660H715L618 243Q590 122 518 56T321 -10ZM466 878L499 717H408L342
878H466Z" />
<glyph unicode="&#xda;" glyph-name="Uacute" horiz-adv-x="700" d="M321 -10Q228 -10 166 26T80 129T78 290L164 660H304L214 269Q203 215 214 178T257 122T333 103Q395 103 430 142T482 253L576 660H715L618 243Q590 122 518 56T321 -10ZM484 878H618L494 717H388L484
878Z" />
<glyph unicode="&#xdb;" glyph-name="Ucircumflex" horiz-adv-x="700" d="M321 -10Q228 -10 166 26T80 129T78 290L164 660H304L214 269Q203 215 214 178T257 122T333 103Q395 103 430 142T482 253L576 660H715L618 243Q590 122 518 56T321 -10ZM554 878L620 717H525L475
813L383 717H276L417 878H554Z" />
<glyph unicode="&#xdc;" glyph-name="Udieresis" horiz-adv-x="700" d="M321 -10Q228 -10 166 26T80 129T78 290L164 660H304L214 269Q203 215 214 178T257 122T333 103Q395 103 430 142T482 253L576 660H715L618 243Q590 122 518 56T321 -10ZM559 711Q529 711
510 726T491 769Q491 809 514 829T573 849Q604 849 622 835T641 792Q641 751 619 731T559 711ZM346 711Q316 711 298 726T279 769Q279 809 301 829T361 849Q391 849 410 835T429 792Q429 751 407 731T346 711Z" />
<glyph unicode="&#xdd;" glyph-name="Yacute" horiz-adv-x="609" d="M176 0L234 249L107 660H245L301 462L326 354L398 466L539 660H691L371 239L316 0H176ZM433 878H567L443 717H337L433 878Z" />
<glyph unicode="&#xde;" glyph-name="Thorn" horiz-adv-x="638" d="M136 120L161 229H350Q393 229 421 246T464 292T479 354Q479 394 452 418T370 442H206L233 550H386Q495 550 556 499T618 360Q618 290 585 236T493 151T353 120H136ZM24 0L177 660H317L164 0H24Z" />
<glyph unicode="&#xdf;" glyph-name="germandbls" horiz-adv-x="613" d="M342 -10Q299 -10 265 -1T210 22L247 119Q262 109 283 102T329 95Q364 95 388 112T424 156T437 216Q437 262 408 289T322 317Q315 317 308 317T294 315L323 417Q333 416 341 416T358 415Q397
415 424 430T465 472T479 533Q479 562 468 580T436 608T388 618Q337 618 306 586T259 480L148 0H10L126 505Q152 616 221 669T400 723Q468 723 515 702T587 642T612 555Q612 499 589 457T525 391T435 365V363Q470 360 499 342T546 291T564 214Q564 148 536 97T459
18T342 -10Z" />
<glyph unicode="&#xe0;" glyph-name="agrave" horiz-adv-x="615" d="M214 -9Q163 -9 124 16T62 87T39 197Q39 258 56 314T105 415T183 484T283 510Q338 510 379 480T432 389L457 500H595L479 0H354L373 95Q349 47 307 19T214 -9ZM271 95Q299 95 323 112T364 158T392
222T403 295Q403 330 392 354T360 392T311 406Q269 406 239 377T192 303T175 210Q175 174 186 148T218 109T271 95ZM366 741L401 571H305L238 741H366Z" />
<glyph unicode="&#xe1;" glyph-name="aacute" horiz-adv-x="615" d="M214 -9Q163 -9 124 16T62 87T39 197Q39 258 56 314T105 415T183 484T283 510Q338 510 379 480T432 389L457 500H595L479 0H354L373 95Q349 47 307 19T214 -9ZM271 95Q299 95 323 112T364 158T392
222T403 295Q403 330 392 354T360 392T311 406Q269 406 239 377T192 303T175 210Q175 174 186 148T218 109T271 95ZM393 741H532L386 571H279L393 741Z" />
<glyph unicode="&#xe2;" glyph-name="acircumflex" horiz-adv-x="615" d="M214 -9Q163 -9 124 16T62 87T39 197Q39 258 56 314T105 415T183 484T283 510Q338 510 379 480T432 389L457 500H595L479 0H354L373 95Q349 47 307 19T214 -9ZM271 95Q299 95 323 112T364
158T392 222T403 295Q403 330 392 354T360 392T311 406Q269 406 239 377T192 303T175 210Q175 174 186 148T218 109T271 95ZM171 565L316 735H453L518 565H419L371 662L280 565H171Z" />
<glyph unicode="&#xe3;" glyph-name="atilde" horiz-adv-x="615" d="M214 -9Q163 -9 124 16T62 87T39 197Q39 258 56 314T105 415T183 484T283 510Q338 510 379 480T432 389L457 500H595L479 0H354L373 95Q349 47 307 19T214 -9ZM271 95Q299 95 323 112T364 158T392
222T403 295Q403 330 392 354T360 392T311 406Q269 406 239 377T192 303T175 210Q175 174 186 148T218 109T271 95ZM553 716Q541 642 504 605T421 567Q395 567 378 576T348 598T324 620T298 630Q281 630 270 613T251 568H170Q182 642 218 679T301 717Q325 717 341
708T371 686T397 664T425 654Q440 654 452 670T471 716H553Z" />
<glyph unicode="&#xe4;" glyph-name="adieresis" horiz-adv-x="615" d="M214 -9Q163 -9 124 16T62 87T39 197Q39 258 56 314T105 415T183 484T283 510Q338 510 379 480T432 389L457 500H595L479 0H354L373 95Q349 47 307 19T214 -9ZM271 95Q299 95 323 112T364
158T392 222T403 295Q403 330 392 354T360 392T311 406Q269 406 239 377T192 303T175 210Q175 174 186 148T218 109T271 95ZM460 564Q430 564 411 579T392 622Q392 662 415 682T474 702Q505 702 523 688T542 645Q542 604 520 584T460 564ZM247 564Q217 564 199
579T180 622Q180 662 202 682T262 702Q292 702 311 688T330 645Q330 604 308 584T247 564Z" />
<glyph unicode="&#xe5;" glyph-name="aring" horiz-adv-x="615" d="M214 -9Q163 -9 124 16T62 87T39 197Q39 258 56 314T105 415T183 484T283 510Q338 510 379 480T432 389L457 500H595L479 0H354L373 95Q349 47 307 19T214 -9ZM271 95Q299 95 323 112T364 158T392
222T403 295Q403 330 392 354T360 392T311 406Q269 406 239 377T192 303T175 210Q175 174 186 148T218 109T271 95ZM371 803Q428 803 462 772T497 693Q497 635 459 597T361 559Q304 559 269 590T233 669Q233 728 272 765T371 803ZM369 738Q344 738 326 722T308
675Q308 652 324 638T363 624Q388 624 405 641T423 687Q423 709 409 723T369 738Z" />
<glyph unicode="&#xe6;" glyph-name="ae" horiz-adv-x="870" d="M188 -10Q109 -10 67 28T25 127Q25 175 48 206T111 254T197 278L378 301L368 223L249 207Q204 201 179 188T153 140Q153 113 170 98T221 83Q266 83 293 107T332 179L360 302Q362 311 363 319T364
334Q364 370 342 390T281 411Q239 411 213 391T170 330L60 365Q83 432 138 471T286 510Q334 510 370 495T427 453T450 394L426 403Q458 450 509 480T632 510Q693 510 737 484T806 411T831 306Q831 284 828 261T818 215H463L473 299H698Q698 303 698 307T699 318Q699
347 688 367T659 398T619 409Q580 409 553 391T509 343T485 278T477 207Q477 171 491 145T529 105T585 91Q624 91 649 109T689 156L802 107Q774 53 716 22T583 -9Q526 -9 482 13T410 71T379 154L408 155Q400 112 373 74T299 13T188 -10Z" />
<glyph unicode="&#xe7;" glyph-name="ccedilla" horiz-adv-x="543" d="M275 -10Q202 -10 150 19T69 100T41 215Q41 298 74 365T168 471T314 510Q377 510 424 488T500 427T531 336L397 313Q396 355 377 381T312 407Q272 407 241 378T193 303T176 207Q176 173 188
147T223 106T278 91Q308 91 334 111T372 165L497 123Q470 61 412 26T275 -10ZM191 7L236 29Q287 15 315 -14T343 -86Q343 -127 324 -155T274 -199T206 -215Q169 -215 141 -203T96 -172L135 -108Q148 -121 166 -127T202 -134Q229 -134 246 -117T263 -74Q263 -47
245 -28T191 7Z" />
<glyph unicode="&#xe8;" glyph-name="egrave" horiz-adv-x="565" d="M272 -9Q202 -9 150 19T70 98T41 215Q41 298 74 364T168 470T313 509Q380 509 427 483T500 409T525 298Q525 276 522 255T513 215H126L127 297H429L387 272Q390 284 391 294T393 317Q393 346
383 366T354 398T308 409Q270 409 244 391T201 344T178 279T171 209Q171 173 184 147T222 106T280 91Q320 91 344 109T384 156L497 107Q469 53 410 22T272 -9ZM353 741L388 571H292L225 741H353Z" />
<glyph unicode="&#xe9;" glyph-name="eacute" horiz-adv-x="565" d="M272 -9Q202 -9 150 19T70 98T41 215Q41 298 74 364T168 470T313 509Q380 509 427 483T500 409T525 298Q525 276 522 255T513 215H126L127 297H429L387 272Q390 284 391 294T393 317Q393 346
383 366T354 398T308 409Q270 409 244 391T201 344T178 279T171 209Q171 173 184 147T222 106T280 91Q320 91 344 109T384 156L497 107Q469 53 410 22T272 -9ZM380 741H519L373 571H266L380 741Z" />
<glyph unicode="&#xea;" glyph-name="ecircumflex" horiz-adv-x="565" d="M272 -9Q202 -9 150 19T70 98T41 215Q41 298 74 364T168 470T313 509Q380 509 427 483T500 409T525 298Q525 276 522 255T513 215H126L127 297H429L387 272Q390 284 391 294T393 317Q393
346 383 366T354 398T308 409Q270 409 244 391T201 344T178 279T171 209Q171 173 184 147T222 106T280 91Q320 91 344 109T384 156L497 107Q469 53 410 22T272 -9ZM158 565L303 735H440L505 565H406L358 662L267 565H158Z" />
<glyph unicode="&#xeb;" glyph-name="edieresis" horiz-adv-x="565" d="M272 -9Q202 -9 150 19T70 98T41 215Q41 298 74 364T168 470T313 509Q380 509 427 483T500 409T525 298Q525 276 522 255T513 215H126L127 297H429L387 272Q390 284 391 294T393 317Q393
346 383 366T354 398T308 409Q270 409 244 391T201 344T178 279T171 209Q171 173 184 147T222 106T280 91Q320 91 344 109T384 156L497 107Q469 53 410 22T272 -9ZM447 564Q417 564 398 579T379 622Q379 662 402 682T461 702Q492 702 510 688T529 645Q529 604 507
584T447 564ZM234 564Q204 564 186 579T167 622Q167 662 189 682T249 702Q279 702 298 688T317 645Q317 604 295 584T234 564Z" />
<glyph unicode="&#xec;" glyph-name="igrave" horiz-adv-x="275" d="M264 500L148 0H10L126 500H264ZM227 741L262 571H166L99 741H227Z" />
<glyph unicode="&#xed;" glyph-name="iacute" horiz-adv-x="275" d="M264 500L148 0H10L126 500H264ZM254 741H393L247 571H140L254 741Z" />
<glyph unicode="&#xee;" glyph-name="icircumflex" horiz-adv-x="275" d="M264 500L148 0H10L126 500H264ZM32 565L177 735H314L379 565H280L232 662L141 565H32Z" />
<glyph unicode="&#xef;" glyph-name="idieresis" horiz-adv-x="263" d="M304 564Q275 564 257 578T238 620Q238 659 259 680T319 702Q349 702 367 688T385 647Q385 608 364 586T304 564ZM114 564Q84 564 66 579T48 620Q48 659 70 680T131 702Q160 702 178 688T196
647Q196 608 175 586T114 564ZM261 500L145 0H7L123 500H261Z" />
<glyph unicode="&#xf0;" glyph-name="eth" horiz-adv-x="588" d="M264 -10Q196 -10 146 20T69 101T41 217Q41 295 73 358T162 457T291 494Q341 494 377 477T432 428T451 352L439 342Q441 357 442 371T443 400Q443 501 397 581T260 725H387Q438 696 475 644T532
527T553 390Q553 307 535 235T479 108T389 22T264 -10ZM277 91Q307 91 331 108T373 155T399 218T409 288Q409 324 396 348T360 384T307 396Q278 396 254 379T212 333T185 270T176 204Q176 171 188 146T224 106T277 91ZM250 542L240 598L408 631L438 582L250 542ZM468
586L444 635L603 670L615 614L468 586Z" />
<glyph unicode="&#xf1;" glyph-name="ntilde" horiz-adv-x="596" d="M10 0L126 500H248L224 355L216 366Q236 436 287 473T406 510Q460 510 496 486T547 418T547 311L475 0H337L405 297Q417 346 398 374T337 402Q304 402 279 386T237 341T210 269L148 0H10ZM576
716Q564 642 527 605T444 567Q418 567 401 576T371 598T347 620T321 630Q304 630 293 613T274 568H193Q205 642 241 679T324 717Q348 717 364 708T394 686T420 664T448 654Q463 654 475 670T494 716H576Z" />
<glyph unicode="&#xf2;" glyph-name="ograve" horiz-adv-x="585" d="M274 -10Q201 -10 149 20T69 101T41 215Q41 298 73 365T167 471T312 510Q385 510 437 480T517 400T545 285Q545 203 512 136T419 30T274 -10ZM276 91Q315 91 345 120T392 196T409 293Q409 344
384 376T309 409Q270 409 241 380T194 304T176 207Q176 173 187 147T221 106T276 91ZM362 741L397 571H301L234 741H362Z" />
<glyph unicode="&#xf3;" glyph-name="oacute" horiz-adv-x="585" d="M274 -10Q201 -10 149 20T69 101T41 215Q41 298 73 365T167 471T312 510Q385 510 437 480T517 400T545 285Q545 203 512 136T419 30T274 -10ZM276 91Q315 91 345 120T392 196T409 293Q409 344
384 376T309 409Q270 409 241 380T194 304T176 207Q176 173 187 147T221 106T276 91ZM389 741H528L382 571H275L389 741Z" />
<glyph unicode="&#xf4;" glyph-name="ocircumflex" horiz-adv-x="585" d="M274 -10Q201 -10 149 20T69 101T41 215Q41 298 73 365T167 471T312 510Q385 510 437 480T517 400T545 285Q545 203 512 136T419 30T274 -10ZM276 91Q315 91 345 120T392 196T409 293Q409
344 384 376T309 409Q270 409 241 380T194 304T176 207Q176 173 187 147T221 106T276 91ZM167 565L312 735H449L514 565H415L367 662L276 565H167Z" />
<glyph unicode="&#xf5;" glyph-name="otilde" horiz-adv-x="585" d="M274 -10Q201 -10 149 20T69 101T41 215Q41 298 73 365T167 471T312 510Q385 510 437 480T517 400T545 285Q545 203 512 136T419 30T274 -10ZM276 91Q315 91 345 120T392 196T409 293Q409 344
384 376T309 409Q270 409 241 380T194 304T176 207Q176 173 187 147T221 106T276 91ZM549 716Q537 642 500 605T417 567Q391 567 374 576T344 598T320 620T294 630Q277 630 266 613T247 568H166Q178 642 214 679T297 717Q321 717 337 708T367 686T393 664T421 654Q436
654 448 670T467 716H549Z" />
<glyph unicode="&#xf6;" glyph-name="odieresis" horiz-adv-x="585" d="M274 -10Q201 -10 149 20T69 101T41 215Q41 298 73 365T167 471T312 510Q385 510 437 480T517 400T545 285Q545 203 512 136T419 30T274 -10ZM276 91Q315 91 345 120T392 196T409 293Q409
344 384 376T309 409Q270 409 241 380T194 304T176 207Q176 173 187 147T221 106T276 91ZM456 564Q426 564 407 579T388 622Q388 662 411 682T470 702Q501 702 519 688T538 645Q538 604 516 584T456 564ZM243 564Q213 564 195 579T176 622Q176 662 198 682T258
702Q288 702 307 688T326 645Q326 604 304 584T243 564Z" />
<glyph unicode="&#xf7;" glyph-name="divide" horiz-adv-x="617" d="M586 374L562 270H65L89 374H586ZM273 40Q241 40 221 56T201 103Q201 143 223 166T282 190Q315 190 334 173T354 125Q354 86 332 63T273 40ZM370 456Q338 456 318 473T298 520Q298 559 320 582T379
606Q412 606 431 589T451 542Q451 502 429 479T370 456Z" />
<glyph unicode="&#xf8;" glyph-name="oslash" horiz-adv-x="585" d="M274 -10Q201 -10 149 20T69 101T41 215Q41 298 73 365T167 471T312 510Q385 510 437 480T517 400T545 285Q545 203 512 136T419 30T274 -10ZM276 91Q315 91 345 120T392 196T409 293Q409 344
384 376T309 409Q270 409 241 380T194 304T176 207Q176 173 187 147T221 106T276 91ZM248 -24L776 524H848L319 -24H248Z" />
<glyph unicode="&#xf9;" glyph-name="ugrave" horiz-adv-x="594" d="M181 -9Q129 -9 92 14T38 82T37 187L110 500H248L180 205Q168 154 188 127T250 99Q284 99 307 115T347 161T373 231L435 500H573L457 0H335L359 145L368 133Q346 64 296 28T181 -9ZM365 735L400
565H304L237 735H365Z" />
<glyph unicode="&#xfa;" glyph-name="uacute" horiz-adv-x="594" d="M181 -9Q129 -9 92 14T38 82T37 187L110 500H248L180 205Q168 154 188 127T250 99Q284 99 307 115T347 161T373 231L435 500H573L457 0H335L359 145L368 133Q346 64 296 28T181 -9ZM392 735H531L385
565H278L392 735Z" />
<glyph unicode="&#xfb;" glyph-name="ucircumflex" horiz-adv-x="594" d="M181 -9Q129 -9 92 14T38 82T37 187L110 500H248L180 205Q168 154 188 127T250 99Q284 99 307 115T347 161T373 231L435 500H573L457 0H335L359 145L368 133Q346 64 296 28T181 -9ZM170
559L315 729H452L517 559H418L370 656L279 559H170Z" />
<glyph unicode="&#xfc;" glyph-name="udieresis" horiz-adv-x="594" d="M181 -9Q129 -9 92 14T38 82T37 187L110 500H248L180 205Q168 154 188 127T250 99Q284 99 307 115T347 161T373 231L435 500H573L457 0H335L359 145L368 133Q346 64 296 28T181 -9ZM459 558Q429
558 410 573T391 616Q391 656 414 676T473 696Q504 696 522 682T541 639Q541 598 519 578T459 558ZM246 558Q216 558 198 573T179 616Q179 656 201 676T261 696Q291 696 310 682T329 639Q329 598 307 578T246 558Z" />
<glyph unicode="&#xfd;" glyph-name="yacute" horiz-adv-x="530" d="M30 -215Q-11 -215 -43 -206T-95 -180L-53 -81Q-36 -95 -16 -102T28 -110Q58 -110 80 -96T119 -54L147 -6L63 500H203L226 219L234 100L292 215L440 500H589L254 -60Q224 -111 192 -145T120
-197T30 -215ZM388 735H527L381 565H274L388 735Z" />
<glyph unicode="&#xfe;" glyph-name="thorn" horiz-adv-x="605" d="M-39 -210L175 718H313L230 357L216 345Q233 421 283 465T403 509Q450 509 487 485T545 416T567 306Q567 244 550 187T500 86T425 16T328 -10Q286 -10 250 7T192 59T168 147L187 173L99 -210H-39ZM297
94Q337 94 366 123T413 198T431 292Q431 328 420 353T387 391T336 404Q297 404 267 376T219 302T202 204Q202 155 226 125T297 94Z" />
<glyph unicode="&#xff;" glyph-name="ydieresis" horiz-adv-x="530" d="M30 -215Q-11 -215 -43 -206T-95 -180L-53 -81Q-36 -95 -16 -102T28 -110Q58 -110 80 -96T119 -54L147 -6L63 500H203L226 219L234 100L292 215L440 500H589L254 -60Q224 -111 192 -145T120
-197T30 -215ZM455 558Q425 558 406 573T387 616Q387 656 410 676T469 696Q500 696 518 682T537 639Q537 598 515 578T455 558ZM242 558Q212 558 194 573T175 616Q175 656 197 676T257 696Q287 696 306 682T325 639Q325 598 303 578T242 558Z" />
<glyph unicode="&#x2013;" glyph-name="endash" horiz-adv-x="681" d="M618 322L592 209H69L95 322H618Z" />
<glyph unicode="&#x2014;" glyph-name="emdash" horiz-adv-x="1006" d="M943 322L917 209H69L95 322H943Z" />
<glyph unicode="&#x2018;" glyph-name="quoteleft" horiz-adv-x="267" d="M185 389Q143 389 119 414T95 480Q95 529 121 574T192 651T289 694L321 635Q283 630 255 614T208 578T180 542L182 539Q187 541 193 542T208 544Q238 544 255 525T272 477Q272 439 248
414T185 389Z" />
<glyph unicode="&#x2019;" glyph-name="quoteright" horiz-adv-x="267" d="M224 693Q269 693 290 667T311 600Q311 555 288 511T221 434T119 387L85 445Q123 453 151 468T199 502T227 542L225 544Q219 540 213 539T196 537Q170 537 152 557T134 605Q134 644 159
668T224 693Z" />
<glyph unicode="&#x201a;" glyph-name="quotesinglbase" horiz-adv-x="268" d="M100 152Q145 152 166 126T187 59Q187 14 164 -30T97 -107T-5 -154L-39 -96Q-1 -88 27 -73T75 -39T103 1L101 3Q95 -1 89 -2T72 -4Q46 -4 28 16T10 64Q10 103 35 127T100 152Z" />
<glyph unicode="&#x201c;" glyph-name="quotedblleft" horiz-adv-x="485" d="M185 389Q143 389 119 414T95 480Q95 529 121 574T192 651T289 694L321 635Q283 630 255 614T208 578T180 542L182 539Q187 541 193 542T208 544Q238 544 255 525T272 477Q272 439 248
414T185 389ZM403 389Q361 389 337 414T313 480Q313 529 339 574T410 651T507 694L539 635Q501 630 473 614T426 578T398 542L400 539Q405 541 411 542T426 544Q456 544 473 525T490 477Q490 439 466 414T403 389Z" />
<glyph unicode="&#x201d;" glyph-name="quotedblright" horiz-adv-x="485" d="M224 693Q269 693 290 667T311 600Q311 555 288 511T221 434T119 387L85 445Q123 453 151 468T199 502T227 542L225 544Q219 540 213 539T196 537Q170 537 152 557T134 605Q134 644
159 668T224 693ZM442 693Q487 693 508 667T529 600Q529 555 506 511T439 434T337 387L303 445Q341 453 369 468T417 502T445 542L443 544Q437 540 431 539T414 537Q388 537 370 557T352 605Q352 644 377 668T442 693Z" />
<glyph unicode="&#x201e;" glyph-name="quotedblbase" horiz-adv-x="487" d="M100 152Q145 152 166 126T187 59Q187 14 164 -30T97 -107T-5 -154L-39 -96Q-1 -88 27 -73T75 -39T103 1L101 3Q95 -1 89 -2T72 -4Q46 -4 28 16T10 64Q10 103 35 127T100 152ZM319 152Q364
152 385 126T406 59Q406 14 383 -30T316 -107T214 -154L180 -96Q218 -88 246 -73T294 -39T322 1L320 3Q314 -1 308 -2T291 -4Q265 -4 247 16T229 64Q229 103 254 127T319 152Z" />
<glyph unicode="&#x2022;" glyph-name="bullet" horiz-adv-x="426" d="M225 197Q165 197 129 230T92 317Q92 386 133 428T242 471Q302 471 337 437T373 352Q373 282 333 240T225 197Z" />
<glyph unicode="&#x2039;" glyph-name="guilsinglleft" horiz-adv-x="331" d="M340 461L139 231L142 313L242 69H123L42 265L213 461H340Z" />
<glyph unicode="&#x203a;" glyph-name="guilsinglright" horiz-adv-x="329" d="M-14 69L180 295L183 214L83 461H200L283 265L113 69H-14Z" />
</font>
</defs>
</svg>
