<?xml version="1.0" standalone="no"?>
<!DOCTYPE svg PUBLIC "-//W3C//DTD SVG 1.1//EN" "http://www.w3.org/Graphics/SVG/1.1/DTD/svg11.dtd">
<svg xmlns="http://www.w3.org/2000/svg">
<defs >
<font id="Mukta" horiz-adv-x="690" ><font-face
    font-family="Mukta ExtraBold"
    units-per-em="1000"
    panose-1="2 11 0 0 0 0 0 0 0 0"
    ascent="1130"
    descent="-532"
    alphabetic="0" />
<glyph unicode=" " glyph-name="space" horiz-adv-x="232" />
<glyph unicode="!" glyph-name="exclam" horiz-adv-x="267" d="M57 710H211L191 229H75L57 710ZM53 71Q53 88 59 103T77 129T103 146T134 152Q150 152 164 146T190 129T207 103T214 71Q214 34 190 12T134 -11Q102 -11 78 11T53 71Z" />
<glyph unicode="&quot;" glyph-name="quotedbl" horiz-adv-x="379" d="M215 647H338L322 410H230L215 647ZM41 647H164L149 410H57L41 647Z" />
<glyph unicode="#" glyph-name="numbersign" horiz-adv-x="617" d="M258 449L234 302H359L382 449H258ZM430 740H517L484 537H586V449H470L446 302H552V214H434L399 0H311L345 214H220L185 0H98L131 214H35V302H147L171 449H70V537H186L217 740H304L272 536H398L430 740Z" />
<glyph unicode="$" glyph-name="dollar" horiz-adv-x="561" d="M241 730H336V620Q366 615 399 605T464 576L425 470Q399 485 361 496T288 508Q256 508 235 495T214 457Q214 434 232 420T298 389L344 374Q419 349 459 303T499 189Q499 157 489 128T456 75T401 35T321
12V-104H226V10Q134 19 63 67L112 170Q147 146 184 135T257 123Q308 123 326 140T345 179Q345 200 330 216T269 247L218 264Q186 274 158 290T107 328T73 378T60 444Q60 481 74 512T112 567T169 603T241 619V730Z" />
<glyph unicode="%" glyph-name="percent" horiz-adv-x="799" d="M142 0L579 750H664L227 0H142ZM771 181Q771 143 760 108T727 47T672 5T596 -11Q554 -11 522 4T469 46T436 108T424 181Q424 219 436 253T470 314T525 356T599 372Q640 372 672 357T726 315T759
254T771 181ZM659 181Q659 201 656 220T646 255T628 280T599 290Q582 290 571 281T551 257T540 222T536 181Q536 159 539 139T549 104T568 80T596 71Q628 71 643 102T659 181ZM374 559Q374 521 363 486T330 425T275 383T199 367Q157 367 125 382T72 424T39 486T27
559Q27 597 39 631T73 692T128 734T202 750Q243 750 275 735T329 693T362 632T374 559ZM262 559Q262 577 259 595T249 627T231 649T202 658Q169 658 154 628T139 559Q139 537 142 517T152 482T171 458T199 449Q231 449 246 480T262 559Z" />
<glyph unicode="&amp;" glyph-name="ampersand" horiz-adv-x="675" d="M15 188Q15 226 27 256T59 310T105 351T158 379Q136 402 118 435T100 506Q100 581 151 625T295 670Q337 670 371 658T430 624T468 574T482 513Q482 489 474 468T453 429T421 398T384 375L314
445Q331 456 342 473T354 514Q354 540 336 557T293 574Q264 574 249 558T234 513Q234 485 250 458T303 393L458 233Q471 256 483 285T505 343L612 300Q597 257 577 216T539 151L685 0H516L456 61Q429 35 380 12T257 -11Q197 -11 152 4T77 46T31 109T15 188ZM156
193Q156 148 188 123T275 97Q314 97 341 111T380 139L225 299Q199 287 178 262T156 193Z" />
<glyph unicode="&apos;" glyph-name="quotesingle" horiz-adv-x="205" d="M41 647H164L149 410H57L41 647Z" />
<glyph unicode="(" glyph-name="parenleft" horiz-adv-x="311" d="M201 -153Q169 -113 140 -67T89 32T54 147T40 279Q40 349 53 411T88 528T140 628T203 710L281 666Q257 627 237 583T201 489T176 388T167 279Q167 223 175 174T198 78T234 -13T281 -104L201 -153Z" />
<glyph unicode=")" glyph-name="parenright" horiz-adv-x="311" d="M108 710Q141 674 171 629T223 529T258 412T271 279Q271 208 258 147T222 33T171 -67T110 -153L30 -104Q56 -58 77 -14T113 77T136 173T144 279Q144 335 135 387T111 489T75 582T30 666L108 710Z" />
<glyph unicode="*" glyph-name="asterisk" horiz-adv-x="383" d="M56 408L102 468L162 514H88L15 537L42 619L113 598L179 556L152 626V699H242V626L216 556L281 597L351 619L378 537L307 513L231 514L291 469L336 408L264 355L221 416L197 489L172 415L127 355L56 408Z" />
<glyph unicode="+" glyph-name="plus" horiz-adv-x="552" d="M522 348V254H323V55H229V254H30V348H229V547H323V348H522Z" />
<glyph unicode="," glyph-name="comma" horiz-adv-x="246" d="M110 -11Q74 -3 55 21T35 80Q35 114 57 139T122 164Q138 164 155 157T185 135T207 96T216 37Q216 0 204 -33T172 -95T127 -146T75 -182L34 -126Q66 -109 91 -79T124 -14L110 -11Z" />
<glyph unicode="-" glyph-name="hyphen" horiz-adv-x="280" d="M250 343V234H30V343H250Z" />
<glyph unicode="." glyph-name="period" horiz-adv-x="241" d="M45 77Q45 115 70 139T131 164Q166 164 191 140T216 77Q216 36 191 13T131 -11Q96 -11 71 12T45 77Z" />
<glyph unicode="/" glyph-name="slash" horiz-adv-x="365" d="M-1 -109L263 750H368L104 -109H-1Z" />
<glyph unicode="0" glyph-name="zero" horiz-adv-x="595" d="M299 642Q356 642 404 624T488 566T543 465T563 317Q563 233 542 171T483 69T398 9T298 -11Q241 -11 193 8T109 67T53 169T33 317Q33 399 55 460T113 562T198 622T299 642ZM185 317Q185 254 194 212T219
145T255 109T299 98Q321 98 341 108T377 144T402 212T411 317Q411 380 402 421T378 487T342 522T299 533Q276 533 256 523T220 488T195 422T185 317Z" />
<glyph unicode="1" glyph-name="one" horiz-adv-x="424" d="M220 630H344V0H198V498L79 441L45 549L220 630Z" />
<glyph unicode="2" glyph-name="two" horiz-adv-x="493" d="M221 530Q190 530 162 519T102 481L42 573Q79 603 126 622T243 642Q289 642 326 628T390 590T430 531T445 457Q445 394 402 323T273 173L209 113H450V0H61L35 97L127 189Q176 238 208 274T259 340T287
395T295 444Q295 489 273 509T221 530Z" />
<glyph unicode="3" glyph-name="three" horiz-adv-x="503" d="M48 597Q83 619 124 630T222 642Q269 642 307 629T372 593T413 540T428 474Q428 445 420 422T397 380T364 348T323 325Q380 313 415 273T450 175Q450 128 433 93T384 35T309 1T213 -11Q159 -11 113
-1T32 29L63 132Q93 118 122 109T187 100Q240 100 269 121T298 178Q298 214 271 237T186 261H115V369H165Q220 369 249 392T278 456Q278 494 253 513T193 532Q142 532 94 499L48 597Z" />
<glyph unicode="4" glyph-name="four" horiz-adv-x="566" d="M273 630H452V253H541V140H452V0H310V140H20V235L273 630ZM253 385L169 253H310V373L316 504H314L253 385Z" />
<glyph unicode="5" glyph-name="five" horiz-adv-x="534" d="M449 632V519L233 517L220 404Q234 406 241 406T261 406Q305 406 344 394T413 358T460 297T477 209Q477 164 462 124T414 54T333 7T216 -11Q163 -11 123 -1T53 24L83 130Q109 118 137 110T200 102Q261
102 293 130T325 200Q325 251 288 276T193 302Q167 302 141 299T92 290L123 630L449 632Z" />
<glyph unicode="6" glyph-name="six" horiz-adv-x="554" d="M332 642Q367 642 399 637T462 615L429 506Q409 518 386 524T335 531Q300 531 274 520T230 488T201 440T187 382Q211 402 245 413T317 424Q362 424 399 410T462 368T504 303T519 216Q519 166 503 125T456
53T384 6T289 -11Q245 -11 200 4T118 55T58 149T35 294Q35 386 61 452T129 560T224 622T332 642ZM186 225Q186 171 212 134T287 97Q307 97 322 106T349 131T365 167T371 211Q371 263 348 288T283 314Q255 314 235 304T204 281Q196 272 191 259T186 225Z" />
<glyph unicode="7" glyph-name="seven" horiz-adv-x="495" d="M459 630V538L195 -25L66 30L317 527H47V630H459Z" />
<glyph unicode="8" glyph-name="eight" horiz-adv-x="525" d="M269 642Q323 642 363 628T429 590T468 538T481 477Q481 425 450 390T371 334Q395 326 417 314T458 283T486 240T497 184Q497 140 480 105T432 43T356 3T258 -11Q205 -11 163 2T90 40T44 97T28 171Q28
202 37 226T63 268T102 300T148 323Q106 342 78 378T49 462Q49 495 63 527T104 584T173 626T269 642ZM192 472Q192 438 215 415T271 383Q298 393 317 416T337 465Q337 500 318 518T264 536Q231 536 212 517T192 472ZM256 265Q221 254 199 231T177 175Q177 139 200
118T265 97Q300 97 324 120T349 176Q349 210 323 233T256 265Z" />
<glyph unicode="9" glyph-name="nine" horiz-adv-x="547" d="M232 -11Q179 -11 140 -3T74 22L104 127Q126 116 154 108T217 100Q285 100 320 142T360 253Q342 238 314 227T249 216Q202 216 163 230T97 270T54 334T38 422Q38 471 54 512T102 581T177 626T278 642Q323
642 365 626T439 573T492 480T512 343Q512 253 491 187T431 76T342 11T232 -11ZM360 413Q360 465 338 499T277 534Q237 534 212 509T186 428Q186 374 212 350T279 326Q300 326 318 334T347 356Q360 372 360 413Z" />
<glyph unicode=":" glyph-name="colon" horiz-adv-x="253" d="M41 77Q41 115 66 139T127 164Q162 164 187 140T212 77Q212 36 187 13T127 -11Q92 -11 67 12T41 77ZM41 383Q41 421 66 445T127 470Q162 470 187 446T212 383Q212 342 187 319T127 295Q92 295 67 318T41 383Z" />
<glyph unicode=";" glyph-name="semicolon" horiz-adv-x="251" d="M40 383Q40 421 65 445T126 470Q161 470 186 446T211 383Q211 342 186 319T126 295Q91 295 66 318T40 383ZM110 -11Q74 -3 55 21T35 80Q35 114 57 139T122 164Q138 164 155 157T185 135T207 96T216
37Q216 0 204 -33T172 -95T127 -146T75 -182L34 -126Q66 -109 91 -79T124 -14L110 -11Z" />
<glyph unicode="&lt;" glyph-name="less" horiz-adv-x="476" d="M56 215V293L420 493V381L171 254L420 127V15L56 215Z" />
<glyph unicode="=" glyph-name="equal" horiz-adv-x="443" d="M30 223V130H413V223H30ZM413 432V339H30V432H413Z" />
<glyph unicode="&gt;" glyph-name="greater" horiz-adv-x="476" d="M56 15V127L305 254L56 381V493L420 293V215L56 15Z" />
<glyph unicode="?" glyph-name="question" horiz-adv-x="442" d="M209 715Q257 715 293 702T355 667T394 613T407 545Q407 518 401 495T383 451T353 409T312 364Q290 341 275 327T251 302T239 282T235 259Q235 243 240 230L120 215Q117 225 114 239T111 270Q111
311 130 340T183 404Q203 425 217 441T240 472T253 502T257 535Q257 562 238 580T187 599Q162 599 142 592T99 568L48 666Q79 688 119 701T209 715ZM109 71Q109 88 115 103T133 129T159 146T190 152Q206 152 220 146T246 129T263 103T270 71Q270 34 246 12T190
-11Q158 -11 134 11T109 71Z" />
<glyph unicode="@" glyph-name="at" horiz-adv-x="966" d="M551 53H549Q520 23 481 6T391 -11Q326 -11 290 25T254 114Q254 163 275 198T330 255T410 287T504 297H554L557 317Q558 321 558 324T558 331Q558 357 541 373T490 389Q461 389 427 378T359 348L328 439Q373
463 420 477T521 491Q561 491 593 483T649 457T685 412T698 348Q698 330 695 311L669 150Q666 136 666 126Q666 91 705 91Q728 91 749 108T786 157T812 231T822 326Q822 385 803 436T748 524T660 583T540 605Q445 605 371 573T247 483T170 348T144 179Q144 92 173
33T248 -62T351 -114T466 -130Q530 -130 575 -120T660 -93L684 -173Q642 -191 581 -205T450 -219Q374 -219 301 -198T170 -131T77 -11T42 169Q42 293 82 390T189 554T347 656T536 692Q630 692 703 665T826 589T901 476T927 333Q927 245 904 182T843 79T755 19T652
-1Q633 -1 613 1T578 10L551 53ZM542 217H516Q456 217 427 191T397 128Q397 104 413 94T452 84Q476 84 495 93T526 116L542 217Z" />
<glyph unicode="A" glyph-name="A" horiz-adv-x="652" d="M245 630H407L634 0H473L430 135H218L175 0H16L245 630ZM251 245H395L371 321Q359 358 347 400T325 477H323Q313 442 300 401T275 321L251 245Z" />
<glyph unicode="B" glyph-name="B" horiz-adv-x="581" d="M303 630Q404 630 464 586T524 464Q524 435 514 412T486 373T449 345T408 330Q435 325 459 314T502 284T532 239T543 179Q543 140 526 107T477 51T400 14T298 0H66V630H303ZM218 382H279Q322 382 345 401T368
453Q368 483 346 499T280 516H218V382ZM218 114H277Q326 114 356 132T387 193Q387 233 357 251T278 269H218V114Z" />
<glyph unicode="C" glyph-name="C" horiz-adv-x="574" d="M389 105Q434 105 465 113T517 134L547 25Q527 13 483 1T373 -11Q299 -11 237 12T131 77T63 180T38 316Q38 389 61 449T128 552T234 618T375 642Q441 642 482 630T548 604L514 493Q491 506 460 516T390
526Q350 526 315 515T254 478T213 414T198 317Q198 264 212 224T253 158T313 118T389 105Z" />
<glyph unicode="D" glyph-name="D" horiz-adv-x="658" d="M291 630Q366 630 427 611T531 554T598 460T622 328Q622 244 594 183T518 81T404 20T266 0H66V630H291ZM218 116H257Q297 116 334 126T400 160T445 226T462 328Q462 419 411 466T273 514H218V116Z" />
<glyph unicode="E" glyph-name="E" horiz-adv-x="523" d="M66 630H486V514H218V385H460V270H218V116H489V0H66V630Z" />
<glyph unicode="F" glyph-name="F" horiz-adv-x="501" d="M476 630V514H218V360H454V245H218V0H66V630H476Z" />
<glyph unicode="G" glyph-name="G" horiz-adv-x="636" d="M377 642Q437 642 483 632T566 605L535 505Q501 522 464 529T391 537Q351 537 316 524T255 484T213 414T198 314Q198 208 244 152T378 95Q399 95 416 97T442 103V240H343V352H588V28Q549 11 496 0T377
-11Q305 -11 244 10T136 72T64 174T38 314Q38 393 64 454T136 557T243 620T377 642Z" />
<glyph unicode="H" glyph-name="H" horiz-adv-x="655" d="M66 0V630H218V385H437V630H589V0H437V267H218V0H66Z" />
<glyph unicode="I" glyph-name="I" horiz-adv-x="284" d="M218 630V0H66V630H218Z" />
<glyph unicode="J" glyph-name="J" horiz-adv-x="298" d="M232 630V115Q232 74 230 42T221 -17T203 -66T174 -107Q139 -145 89 -160T-20 -175V-60Q5 -60 22 -53T51 -35Q69 -20 74 5T80 62V630H232Z" />
<glyph unicode="K" glyph-name="K" horiz-adv-x="624" d="M66 0V630H218V372L418 630H607L380 357L627 0H441L269 263L218 208V0H66Z" />
<glyph unicode="L" glyph-name="L" horiz-adv-x="472" d="M66 630H218V118H467V0H66V630Z" />
<glyph unicode="M" glyph-name="M" horiz-adv-x="841" d="M107 630H297L365 409Q372 389 379 363T394 308T408 250T419 196H424Q428 223 435 254T450 315T465 370T476 409L542 630H732L777 0H635L624 213Q622 243 621 278T620 351T619 424T619 490H616Q609 457
601 422T583 353T565 286T547 226L477 0H363L290 225Q281 253 272 285T255 352T238 422T224 490H221Q222 458 222 421T220 346T218 274T215 213L204 0H64L107 630Z" />
<glyph unicode="N" glyph-name="N" horiz-adv-x="670" d="M66 630H206L344 419Q381 362 415 303T469 195H471Q466 255 465 315T464 436V630H604V0H464L318 215Q282 268 252 323T201 439H199Q204 376 205 318T206 200V0H66V630Z" />
<glyph unicode="O" glyph-name="O" horiz-adv-x="710" d="M357 642Q425 642 483 620T583 555T648 452T672 314Q672 239 648 179T581 77T480 12T353 -11Q285 -11 227 11T127 74T62 176T38 314Q38 389 62 449T129 553T230 619T357 642ZM198 314Q198 261 210 221T245
155T295 116T357 103Q389 103 417 116T467 155T500 221T512 314Q512 369 500 409T465 476T415 515T353 528Q321 528 293 515T243 474T210 407T198 314Z" />
<glyph unicode="P" glyph-name="P" horiz-adv-x="573" d="M66 630H294Q351 630 397 617T475 579T525 519T543 437Q543 382 522 342T466 276T383 237T282 224H218V0H66V630ZM218 339H273Q295 339 316 344T352 359T377 387T387 429Q387 472 358 494T279 516H218V339Z" />
<glyph unicode="Q" glyph-name="Q" horiz-adv-x="711" d="M356 642Q424 642 482 620T582 555T648 452T672 314Q672 203 621 122T486 -5L375 -67Q394 -69 413 -75T454 -88T498 -100T550 -106Q577 -106 601 -98T639 -78L691 -179Q679 -191 645 -206T556 -222Q511
-222 473 -213T401 -192T336 -171T271 -161Q239 -161 216 -167T168 -189L119 -97L284 -2Q227 8 182 34T104 101T55 195T38 314Q38 389 62 449T128 553T229 619T356 642ZM198 315Q198 262 210 222T244 154T294 114T355 100Q389 100 417 114T467 155T500 223T512
315Q512 370 500 410T466 476T416 515T354 528Q322 528 294 515T244 475T211 408T198 315Z" />
<glyph unicode="R" glyph-name="R" horiz-adv-x="583" d="M66 630H316Q370 630 411 615T480 572T522 509T536 432Q536 393 525 364T495 312T456 276T417 254L568 0H393L281 227H218V0H66V630ZM218 342H264Q316 342 348 363T380 431Q380 470 354 493T279 516H218V342Z" />
<glyph unicode="S" glyph-name="S" horiz-adv-x="547" d="M279 642Q345 642 393 629T476 596L442 485Q403 505 364 516T288 528Q242 528 218 511T194 466Q194 434 217 420T288 389L347 370Q382 358 412 341T463 300T497 248T509 185Q509 145 494 110T449 47T372
5T262 -11Q203 -11 150 1T51 37L85 148Q128 127 169 115T255 103Q308 103 331 120T355 168Q355 178 351 188T336 208T304 227T251 247L202 264Q167 277 137 293T86 331T52 382T40 451Q40 492 55 527T101 587T176 627T279 642Z" />
<glyph unicode="T" glyph-name="T" horiz-adv-x="511" d="M502 630V512H330V0H178V512H10V630H502Z" />
<glyph unicode="U" glyph-name="U" horiz-adv-x="668" d="M66 630H218V253Q218 182 247 143T337 104Q397 104 423 142T450 241V630H602V254Q602 -11 337 -11Q211 -11 139 55T66 259V630Z" />
<glyph unicode="V" glyph-name="V" horiz-adv-x="624" d="M170 630L253 367Q268 319 285 260T315 140H318Q331 200 347 259T380 368L462 630H618L401 0H232L9 630H170Z" />
<glyph unicode="W" glyph-name="W" horiz-adv-x="883" d="M170 630L226 367Q238 313 246 263T261 157H263Q271 212 281 264T302 367L362 630H525L586 367Q598 316 607 265T624 157H626Q633 213 643 265T663 367L717 630H870L717 0H549L486 268Q474 319 463 371T442
478H440Q431 424 420 372T398 269L337 0H171L15 630H170Z" />
<glyph unicode="X" glyph-name="X" horiz-adv-x="653" d="M203 630L329 419L452 630H628L426 320L638 0H457L319 221L190 0H15L219 320L24 630H203Z" />
<glyph unicode="Y" glyph-name="Y" horiz-adv-x="609" d="M180 630L307 398L435 630H602L379 259V0H227V259L9 630H180Z" />
<glyph unicode="Z" glyph-name="Z" horiz-adv-x="545" d="M505 630V545L214 114H515V0H25V95L310 516H35V630H505Z" />
<glyph unicode="[" glyph-name="bracketleft" horiz-adv-x="295" d="M60 -163V728H270V642H176V-76H270V-163H60Z" />
<glyph unicode="\" glyph-name="backslash" horiz-adv-x="306" d="M206 -88L0 720H100L306 -88H206Z" />
<glyph unicode="]" glyph-name="bracketright" horiz-adv-x="295" d="M25 -163V-76H119V642H25V728H235V-163H25Z" />
<glyph unicode="^" glyph-name="asciicircum" horiz-adv-x="505" d="M460 406H364L252 639L142 406H45L212 720H291L460 406Z" />
<glyph unicode="_" glyph-name="underscore" horiz-adv-x="376" d="M371 -170V-250H5V-170H371Z" />
<glyph unicode="`" glyph-name="grave" horiz-adv-x="217" d="M15 720H133L203 555H121L15 720Z" />
<glyph unicode="a" glyph-name="a" horiz-adv-x="512" d="M67 438Q108 462 159 476T265 491Q354 491 408 448T462 311V0H349L336 48H332Q312 22 277 6T193 -11Q152 -11 122 1T71 33T41 80T30 139Q30 181 48 211T98 260T172 288T263 297H313V323Q313 350 294 364T240
379Q210 379 181 370T117 341L67 438ZM314 207L281 206Q253 205 234 200T204 188T187 170T182 148Q182 117 200 106T243 94Q267 94 286 108T314 139V207Z" />
<glyph unicode="b" glyph-name="b" horiz-adv-x="577" d="M544 238Q544 180 527 134T479 56T407 6T316 -11Q269 -11 236 3T180 44H176L167 0H60V715H207V447Q230 466 261 478T330 491Q430 491 487 425T544 238ZM392 234Q392 307 364 343T285 379Q261 379 240 367T208
342V126Q219 113 237 105T275 97Q298 97 319 105T356 130T382 173T392 234Z" />
<glyph unicode="c" glyph-name="c" horiz-adv-x="468" d="M317 97Q349 97 373 105T411 121L438 21Q421 11 381 0T293 -11Q237 -11 190 5T108 52T53 130T33 238Q33 294 52 340T106 420T189 472T296 491Q327 491 363 484T438 457L407 356Q387 368 363 376T313 384Q255
384 219 349T183 242Q183 202 195 175T226 130T269 105T317 97Z" />
<glyph unicode="d" glyph-name="d" horiz-adv-x="572" d="M364 715H512V0H410L395 52H390Q376 30 342 10T251 -11Q204 -11 164 6T95 56T50 135T33 240Q33 297 48 343T91 422T162 473T257 491Q290 491 319 482T364 458V715ZM364 350Q355 362 336 373T294 384Q271
384 251 377T216 352T191 309T182 243Q182 168 211 133T288 97Q317 97 336 112T364 144V350Z" />
<glyph unicode="e" glyph-name="e" horiz-adv-x="524" d="M491 197H181V193Q181 143 220 120T318 97Q359 97 390 105T442 124L469 22Q442 9 401 -1T299 -11Q245 -11 197 3T112 48T54 124T32 234Q32 291 49 338T99 420T175 472T274 491Q373 491 432 431T491 260V197ZM340
298Q340 315 336 331T324 359T302 379T269 387Q234 387 211 363T184 296L340 298Z" />
<glyph unicode="f" glyph-name="f" horiz-adv-x="382" d="M258 715Q297 715 333 705T397 679L368 584Q352 592 336 597T299 603Q267 603 252 585T236 523V480H349V374H236V0H89V374H15V480H89V551Q89 632 136 673T258 715Z" />
<glyph unicode="g" glyph-name="g" horiz-adv-x="576" d="M53 315Q53 354 69 386T113 442T180 478T265 491Q282 491 304 488T344 480H548V389H502L446 398Q457 383 464 360T472 314Q472 276 458 245T417 191T351 156T263 143Q252 143 242 144T222 147Q215 143
209 136T203 118Q203 105 212 97T251 89H352Q391 89 424 81T480 55T517 9T530 -60Q530 -99 511 -132T458 -189T374 -226T264 -240Q152 -240 88 -201T24 -90Q24 -58 45 -34T106 5Q94 13 79 32T64 81Q64 115 84 139T136 179Q123 186 109 198T82 228T61 266T53 315ZM188
-21Q176 -27 167 -39T158 -69Q158 -94 181 -112T268 -130Q327 -130 355 -111T384 -65Q384 -42 368 -32T314 -21H188ZM328 317Q328 352 310 370T263 389Q234 389 216 371T198 317Q198 282 216 264T263 245Q292 245 310 263T328 317Z" />
<glyph unicode="h" glyph-name="h" horiz-adv-x="581" d="M208 0H60V715H208V442Q235 463 272 477T351 491Q395 491 427 478T480 442T511 386T522 315V0H374V291Q374 339 355 359T300 379Q276 379 251 368T208 339V0Z" />
<glyph unicode="i" glyph-name="i" horiz-adv-x="286" d="M69 0V480H217V0H69ZM143 574Q105 574 85 595T65 647Q65 677 85 698T143 720Q180 720 200 699T221 647Q221 616 201 595T143 574Z" />
<glyph unicode="j" glyph-name="j" horiz-adv-x="282" d="M65 480H213V66Q213 10 204 -39T172 -129T112 -203T17 -260L-45 -161Q-17 -147 4 -131T38 -91T58 -30T65 60V480ZM140 574Q102 574 82 595T62 647Q62 677 82 698T140 720Q177 720 197 699T218 647Q218
616 198 595T140 574Z" />
<glyph unicode="k" glyph-name="k" horiz-adv-x="548" d="M207 156V0H60V715H207V298L357 480H536L355 278L544 0H370L243 193L207 156Z" />
<glyph unicode="l" glyph-name="l" horiz-adv-x="269" d="M61 0V715H207V0H61Z" />
<glyph unicode="m" glyph-name="m" horiz-adv-x="864" d="M206 0H58V480H173L190 420Q222 453 260 472T345 491Q448 491 486 418Q518 451 558 471T645 491Q722 491 764 450T806 328V0H658V313Q658 343 642 361T599 379Q575 379 549 367T506 332V0H358V313Q358
343 342 361T299 379Q275 379 249 365T206 328V0Z" />
<glyph unicode="n" glyph-name="n" horiz-adv-x="574" d="M206 0H58V480H173L190 420Q222 453 262 472T349 491Q430 491 473 447T516 318V0H368V303Q368 338 352 358T303 379Q279 379 253 365T206 328V0Z" />
<glyph unicode="o" glyph-name="o" horiz-adv-x="566" d="M533 243Q533 184 514 137T460 57T380 7T281 -11Q228 -11 183 5T104 53T52 129T33 233Q33 294 52 342T106 423T186 473T285 491Q338 491 383 475T462 428T514 350T533 243ZM381 238Q381 277 373 304T351
349T319 375T282 383Q263 383 246 376T215 352T193 308T185 238Q185 165 215 131T284 97Q303 97 320 104T351 128T373 172T381 238Z" />
<glyph unicode="p" glyph-name="p" horiz-adv-x="570" d="M293 -11Q268 -11 244 -6T205 8V-230H58V480H168L182 429Q211 458 249 474T334 491Q380 491 418 474T482 426T522 349T537 249Q537 187 518 139T466 57T389 7T293 -11ZM292 381Q262 381 239 367T205 339V119Q230
97 274 97Q294 97 314 105T349 130T375 176T385 245Q385 302 361 341T292 381Z" />
<glyph unicode="q" glyph-name="q" horiz-adv-x="572" d="M364 21Q346 6 315 -2T255 -11Q202 -11 161 7T92 59T48 138T33 240Q33 294 48 340T92 419T162 472T257 491Q294 491 330 479T391 441L399 480H512V-230H364V21ZM364 345Q353 359 334 371T285 384Q264 384
246 376T213 351T190 308T182 243Q182 170 213 134T289 97Q315 97 334 106T364 129V345Z" />
<glyph unicode="r" glyph-name="r" horiz-adv-x="396" d="M58 0V480H174L189 396Q198 414 211 431T242 462T283 483T336 491Q358 491 376 486T406 473L382 358Q371 364 354 369T312 374Q266 374 236 344T205 240V0H58Z" />
<glyph unicode="s" glyph-name="s" horiz-adv-x="444" d="M354 357Q327 370 297 377T239 385Q213 385 197 376T181 351Q181 334 196 323T258 298L288 289Q348 271 379 237T410 148Q410 112 395 83T353 32T287 0T201 -11Q150 -11 111 -2T37 24L69 131Q98 116 129
107T194 97Q232 97 247 108T263 134Q263 143 260 149T247 162T222 173T179 187L148 196Q89 215 62 248T35 339Q35 372 48 399T85 447T145 479T227 491Q273 491 312 483T384 459L354 357Z" />
<glyph unicode="t" glyph-name="t" horiz-adv-x="388" d="M355 374H232V171Q232 138 246 125T287 112Q307 112 327 116T358 127L380 26Q363 17 329 9T255 0Q162 0 124 36T85 145V374H10V480H85V626H232V480H355V374Z" />
<glyph unicode="u" glyph-name="u" horiz-adv-x="569" d="M363 480H511V0H402L387 52H383Q373 42 359 31T326 11T281 -5T224 -11Q146 -11 102 32T58 159V480H206V171Q206 134 224 117T272 99Q307 99 329 113T363 144V480Z" />
<glyph unicode="v" glyph-name="v" horiz-adv-x="521" d="M356 480H513L345 0H169L9 480H167L225 270L258 103H262L295 270L356 480Z" />
<glyph unicode="w" glyph-name="w" horiz-adv-x="775" d="M9 480H163L217 241L235 109H239L260 241L312 480H467L519 241L540 109H544L564 241L617 480H767L639 0H465L409 248L389 363L368 248L313 0H138L9 480Z" />
<glyph unicode="x" glyph-name="x" horiz-adv-x="535" d="M357 246L527 0H357L317 60L264 155L215 61L177 0H9L177 246L19 480H184L224 418L271 327L315 418L352 480H514L357 246Z" />
<glyph unicode="y" glyph-name="y" horiz-adv-x="540" d="M7 480H169L248 266L280 149H284L314 268L383 480H534L361 -9Q347 -50 328 -89T282 -162T215 -224T121 -270L60 -155Q119 -134 157 -95T209 -5L211 3L7 480Z" />
<glyph unicode="z" glyph-name="z" horiz-adv-x="422" d="M397 389L183 106H402V0H20V94L234 374H32V480H397V389Z" />
<glyph unicode="{" glyph-name="braceleft" horiz-adv-x="325" d="M303 619Q277 619 261 613T236 592T224 551T221 486V393Q221 347 203 320T158 279V276Q184 259 202 224T221 135V43Q221 10 224 -10T237 -41T262 -58T303 -66V-155Q220 -153 169 -111T118 7V135Q118
182 97 208T30 236V317Q75 323 96 344T118 415V555Q118 587 130 614T165 662T223 693T303 705V619Z" />
<glyph unicode="|" glyph-name="bar" horiz-adv-x="249" d="M72 -230V750H177V-230H72Z" />
<glyph unicode="}" glyph-name="braceright" horiz-adv-x="325" d="M22 705Q105 703 156 661T207 543V415Q207 368 228 342T295 314V233Q250 227 229 206T207 135V-5Q207 -37 195 -64T160 -112T102 -143T22 -155V-69Q47 -69 63 -63T88 -42T100 -1T104 64V157Q104
203 122 230T167 271V274Q141 291 123 326T104 415V507Q104 540 101 560T88 591T63 608T22 616V705Z" />
<glyph unicode="~" glyph-name="asciitilde" horiz-adv-x="574" d="M42 200Q42 280 84 321T190 362Q221 362 247 352T297 330T342 308T386 298Q433 298 433 361H532Q532 288 500 244T401 199Q370 199 342 209T287 232T236 254T189 265Q166 265 154 246T141 200H42Z" />
<glyph unicode="&#xa0;" glyph-name="uni00A0" horiz-adv-x="232" />
<glyph unicode="&#xa1;" glyph-name="exclamdown" horiz-adv-x="267" d="M76 250H192L210 -231H56L76 250ZM53 408Q53 445 77 467T133 490Q165 490 189 468T214 408Q214 391 208 376T190 350T164 333T133 327Q117 327 103 333T77 350T60 376T53 408Z" />
<glyph unicode="&#xa2;" glyph-name="cent" horiz-adv-x="478" d="M324 167Q356 167 380 174T417 189L445 91Q434 84 412 77T361 64V-23H246V63Q201 70 163 89T98 139T55 212T40 308Q40 357 54 399T96 473T161 526T246 556V642H361V556Q381 552 402 545T445 527L415
429Q395 440 370 447T320 454Q262 454 226 419T190 312Q190 272 202 245T233 200T276 175T324 167Z" />
<glyph unicode="&#xa3;" glyph-name="sterling" horiz-adv-x="533" d="M80 0L50 90Q105 116 129 157T141 255H56V358H129Q125 377 122 400T118 446Q118 490 134 526T178 588T247 628T336 642Q356 642 376 640T415 633T447 623T471 611L441 507Q422 517 399 524T346
531Q326 531 310 523T283 501T266 470T260 435Q260 409 262 394T270 358H416V255H282Q286 209 278 175T244 118L245 114H485V0H80Z" />
<glyph unicode="&#xa4;" glyph-name="currency" horiz-adv-x="526" d="M96 56L30 123L112 202Q98 224 92 250T85 305Q85 365 111 405L30 485L97 551L176 468Q195 479 218 485T264 491Q288 491 310 486T351 468L429 551L496 485L412 405Q440 360 440 305Q440 275
432 248T412 201L496 122L429 56L348 139Q310 117 261 117Q238 117 215 123T176 141L96 56ZM334 305Q334 353 316 379T263 406Q229 406 210 381T191 305Q191 256 210 229T263 202Q293 202 313 225T334 305Z" />
<glyph unicode="&#xa5;" glyph-name="yen" horiz-adv-x="609" d="M562 240V158H379V0H227V158H42V240H227V263L188 328H42V410H148L19 630H180L307 378L435 630H592L460 410H562V328H418L379 263V240H562Z" />
<glyph unicode="&#xa6;" glyph-name="brokenbar" horiz-adv-x="265" d="M80 380V750H185V380H80ZM80 -180V188H185V-180H80Z" />
<glyph unicode="&#xa7;" glyph-name="section" horiz-adv-x="515" d="M69 76Q102 56 139 47T214 37Q252 37 267 51T283 84Q283 104 264 116T197 143L162 154Q35 194 35 294Q35 337 55 370T99 423Q75 453 75 499Q75 532 88 559T128 607T191 638T277 650Q326 650
370 640T444 613L414 511Q385 528 352 536T289 544Q258 544 240 533T221 502Q221 492 225 484T240 469T269 455T317 438L352 427Q413 407 446 373T480 283Q480 261 474 242T459 207T437 179T414 159Q430 130 430 88Q430 52 416 23T375 -28T312 -60T231 -71Q113
-71 37 -31L69 76ZM353 261Q353 273 350 281T337 298T311 314T269 331L217 350Q208 353 197 357T180 365Q172 357 167 346T161 323Q161 300 180 285T242 256L294 240Q305 236 316 233T336 224Q353 241 353 261Z" />
<glyph unicode="&#xa8;" glyph-name="dieresis" horiz-adv-x="408" d="M30 620Q30 648 50 669T100 690Q130 690 149 669T169 620Q169 590 150 570T100 549Q71 549 51 569T30 620ZM239 620Q239 648 259 669T309 690Q339 690 358 669T378 620Q378 590 359 570T309
549Q280 549 260 569T239 620Z" />
<glyph unicode="&#xa9;" glyph-name="copyright" horiz-adv-x="705" d="M378 195Q399 195 418 199T457 214L474 155Q451 144 425 139T373 133Q335 133 303 144T245 177T206 232T192 310Q192 351 205 383T242 439T299 474T372 487Q398 487 422 483T471 467L454
407Q434 417 415 421T378 425Q331 425 303 396T274 312Q274 279 283 257T307 221T340 201T378 195ZM354 634Q418 634 475 614T575 553T643 453T669 313Q669 235 644 175T575 74T474 12T352 -9Q289 -9 232 11T131 72T62 173T36 313Q36 391 62 451T131 551T233 613T354
634ZM354 585Q301 585 254 568T172 516T115 431T94 313Q94 244 114 193T170 108T252 57T352 40Q405 40 452 57T534 109T590 195T611 313Q611 381 591 432T535 517T454 568T354 585Z" />
<glyph unicode="&#xaa;" glyph-name="ordfeminine" horiz-adv-x="360" d="M54 559Q80 574 113 583T182 593Q241 593 275 565T310 476V274H237L228 305H226Q212 288 189 278T136 267Q82 267 56 295T30 364Q30 392 42 411T74 443T122 461T181 467H214V484Q214 501
202 510T166 520Q146 520 128 515T86 496L54 559ZM214 409L193 408Q156 407 142 396T128 370Q128 350 140 343T168 335Q184 335 196 344T214 364V409Z" />
<glyph unicode="&#xab;" glyph-name="guillemotleft" horiz-adv-x="513" d="M374 76L246 237L374 397H490L374 237L490 76H374ZM154 76L26 237L154 397H270L154 237L270 76H154Z" />
<glyph unicode="&#xac;" glyph-name="logicalnot" horiz-adv-x="12" />
<glyph unicode="&#xad;" glyph-name="uni00AD" horiz-adv-x="280" d="M250 343V234H30V343H250Z" />
<glyph unicode="&#xae;" glyph-name="registered" horiz-adv-x="528" d="M173 586H277Q319 586 341 564T364 508Q364 479 349 462T315 435Q331 410 348 383T381 330H320L264 425H224V330H173V586ZM224 465H260Q282 465 296 474T311 507Q311 528 299 536T266 545H224V465ZM492
464Q492 407 476 364T429 291T357 246T265 230Q215 230 173 245T101 289T53 360T36 456Q36 513 52 556T99 628T171 673T263 688Q313 688 355 673T427 630T475 560T492 464ZM447 460Q447 508 432 544T392 603T334 637T263 649Q225 649 192 639T135 605T96 547T81
460Q81 411 94 375T132 315T190 280T265 268Q302 268 335 279T393 313T432 373T447 460Z" />
<glyph unicode="&#xaf;" glyph-name="overscore" horiz-adv-x="305" d="M285 662V580H20V662H285Z" />
<glyph unicode="&#xb0;" glyph-name="degree" horiz-adv-x="403" d="M373 468Q373 388 328 341T200 294Q123 294 77 341T30 468Q30 507 42 539T77 594T132 629T203 642Q241 642 272 630T325 594T360 539T373 468ZM286 468Q286 513 267 541T203 570Q160 570 139
543T117 468Q117 422 137 394T200 366Q238 366 262 390T286 468Z" />
<glyph unicode="&#xb1;" glyph-name="plusminus" horiz-adv-x="499" d="M414 91V0H55V91H414ZM459 386V295H298V141H201V295H40V386H201V540H298V386H459Z" />
<glyph unicode="&#xb2;" glyph-name="twosuperior" horiz-adv-x="334" d="M141 780Q124 780 104 775T59 752L24 820Q54 840 86 849T151 858Q225 858 265 821T305 729Q305 686 280 644T206 566L150 523H305V445H36L15 515L95 583Q124 608 143 627T173 663T190 695T195
725Q195 750 179 765T141 780Z" />
<glyph unicode="&#xb3;" glyph-name="threesuperior" horiz-adv-x="310" d="M20 836Q52 850 78 854T131 858Q160 858 185 850T230 828T261 793T273 748Q273 677 194 654V652Q236 644 261 620T287 558Q287 528 274 506T237 469T185 447T123 440Q93 440 62 444T9
459L29 532Q67 518 109 518Q140 518 157 531T174 568Q174 588 158 600T109 612H56V686H93Q126 686 144 699T162 738Q162 761 145 771T108 782Q91 782 75 779T40 767L20 836Z" />
<glyph unicode="&#xb4;" glyph-name="acute" horiz-adv-x="253" d="M132 546H30L100 700H243L132 546Z" />
<glyph unicode="&#xb5;" glyph-name="uni00B5" horiz-adv-x="569" d="M363 480H511V0H402L387 52H383Q374 42 362 31T334 11T294 -5T241 -11Q227 -11 214 -8T189 0L206 -73V-163H58V480H206V171Q206 134 224 117T272 99Q307 99 329 113T363 144V480Z" />
<glyph unicode="&#xb6;" glyph-name="paragraph" horiz-adv-x="612" d="M451 -177V545H360V-177H258V226Q146 226 91 281T35 432Q35 485 52 524T102 590T178 629T276 642H552V-177H451Z" />
<glyph unicode="&#xb7;" glyph-name="middot" horiz-adv-x="241" d="M45 327Q45 365 70 389T131 414Q166 414 191 390T216 327Q216 286 191 263T131 239Q96 239 71 262T45 327Z" />
<glyph unicode="&#xb8;" glyph-name="cedilla" horiz-adv-x="286" d="M204 0L182 -47Q215 -50 236 -69T258 -117Q258 -159 225 -179T140 -200Q114 -200 92 -195T56 -185L74 -126Q87 -131 98 -133T123 -135Q141 -135 152 -129T163 -109Q163 -94 148 -86T92 -78L125 0H204Z" />
<glyph unicode="&#xb9;" glyph-name="onesuperior" horiz-adv-x="312" d="M146 851H247V445H128V737L48 699L22 794L146 851Z" />
<glyph unicode="&#xba;" glyph-name="ordmasculine" horiz-adv-x="12" />
<glyph unicode="&#xbb;" glyph-name="guillemotright" horiz-adv-x="513" d="M23 76L139 236L23 397H139L267 236L139 76H23ZM243 76L359 236L243 397H359L487 236L359 76H243Z" />
<glyph unicode="&#xbc;" glyph-name="onequarter" horiz-adv-x="826" d="M163 -11L574 642H659L248 -11H163ZM146 630H247V224H128V516L48 478L22 573L146 630ZM639 406H765V175H823V102H765V0H658V102H470V166L639 406ZM628 256L573 175H658V254L660 310H658L628 256Z" />
<glyph unicode="&#xbd;" glyph-name="onehalf" horiz-adv-x="874" d="M163 -11L574 642H659L248 -11H163ZM681 335Q664 335 644 330T599 307L564 375Q594 395 626 404T691 413Q765 413 805 376T845 284Q845 241 820 199T746 121L690 78H845V0H576L555 70L635 138Q664
163 683 182T713 218T730 250T735 280Q735 305 719 320T681 335ZM146 630H247V224H128V516L48 478L22 573L146 630Z" />
<glyph unicode="&#xbe;" glyph-name="threequarters" horiz-adv-x="828" d="M168 -11L579 642H664L253 -11H168ZM629 406H755V175H813V102H755V0H648V102H460V166L629 406ZM618 256L563 175H648V254L650 310H648L618 256ZM20 614Q52 628 78 632T131 636Q160 636
185 628T230 606T261 571T273 526Q273 455 194 432V430Q236 422 261 398T287 336Q287 306 274 284T237 247T185 225T123 218Q93 218 62 222T9 237L29 310Q67 296 109 296Q140 296 157 309T174 346Q174 366 158 378T109 390H56V464H93Q126 464 144 477T162 516Q162
539 145 549T108 560Q91 560 75 557T40 545L20 614Z" />
<glyph unicode="&#xbf;" glyph-name="questiondown" horiz-adv-x="430" d="M236 -246Q188 -246 152 -233T90 -198T51 -144T38 -76Q38 -49 44 -26T62 18T92 60T133 105Q155 127 170 141T194 167T206 187T210 210Q210 226 205 239L325 254Q328 244 331 230T334 199Q334
158 315 129T262 65Q242 44 228 28T205 -3T192 -33T188 -66Q188 -93 207 -111T258 -130Q283 -130 303 -123T346 -99L397 -197Q366 -219 326 -232T236 -246ZM336 398Q336 381 330 366T312 340T286 323T255 317Q239 317 225 323T199 340T182 366T175 398Q175 435
199 457T255 480Q287 480 311 458T336 398Z" />
<glyph unicode="&#xc0;" glyph-name="Agrave" horiz-adv-x="652" d="M150 814H308L388 690H266L150 814ZM245 630H407L634 0H473L430 135H218L175 0H16L245 630ZM251 245H395L371 321Q359 358 347 400T325 477H323Q313 442 300 401T275 321L251 245Z" />
<glyph unicode="&#xc1;" glyph-name="Aacute" horiz-adv-x="652" d="M387 690H265L345 814H503L387 690ZM245 630H407L634 0H473L430 135H218L175 0H16L245 630ZM251 245H395L371 321Q359 358 347 400T325 477H323Q313 442 300 401T275 321L251 245Z" />
<glyph unicode="&#xc2;" glyph-name="Acircumflex" horiz-adv-x="652" d="M269 814H378L493 690H383L323 754L263 690H157L269 814ZM245 630H407L634 0H473L430 135H218L175 0H16L245 630ZM251 245H395L371 321Q359 358 347 400T325 477H323Q313 442 300 401T275
321L251 245Z" />
<glyph unicode="&#xc3;" glyph-name="Atilde" horiz-adv-x="652" d="M171 690Q171 715 177 737T195 775T224 801T263 811Q281 811 295 806T323 795T348 783T374 778Q388 778 395 787T404 814H474Q474 759 450 727T386 695Q367 695 351 700T320 711T293 722T270
727Q254 727 248 716T241 690H171ZM245 630H407L634 0H473L430 135H218L175 0H16L245 630ZM251 245H395L371 321Q359 358 347 400T325 477H323Q313 442 300 401T275 321L251 245Z" />
<glyph unicode="&#xc4;" glyph-name="Adieresis" horiz-adv-x="652" d="M154 748Q154 776 173 795T222 814Q251 814 270 795T289 748Q289 719 270 699T222 679Q193 679 174 699T154 748ZM359 748Q359 776 378 795T427 814Q456 814 475 795T494 748Q494 719 475
699T427 679Q398 679 379 699T359 748ZM245 630H407L634 0H473L430 135H218L175 0H16L245 630ZM251 245H395L371 321Q359 358 347 400T325 477H323Q313 442 300 401T275 321L251 245Z" />
<glyph unicode="&#xc5;" glyph-name="Aring" horiz-adv-x="652" d="M216 763Q216 809 246 832T323 856Q370 856 400 833T430 763Q430 740 422 723T399 694T365 676T323 670Q278 670 247 694T216 763ZM285 763Q285 742 295 731T323 719Q340 719 350 730T361 763Q361
784 351 795T323 807Q306 807 296 796T285 763ZM245 630H407L634 0H473L430 135H218L175 0H16L245 630ZM251 245H395L371 321Q359 358 347 400T325 477H323Q313 442 300 401T275 321L251 245Z" />
<glyph unicode="&#xc6;" glyph-name="AE" horiz-adv-x="847" d="M330 630H810V514H572V385H784V270H572V116H813V0H420V140H253L185 0H16L330 630ZM420 522L301 255H420V522Z" />
<glyph unicode="&#xc7;" glyph-name="Ccedilla" horiz-adv-x="574" d="M389 105Q434 105 465 113T517 134L547 25Q527 14 486 3T385 -11L374 -47Q407 -50 428 -71T450 -122Q450 -169 417 -192T332 -215Q306 -215 284 -211T248 -200L266 -141Q278 -146 288 -148T315
-150Q333 -150 344 -142T355 -114Q355 -99 340 -89T284 -78L308 -6Q247 3 197 30T112 98T58 194T38 316Q38 389 61 449T128 552T234 618T375 642Q441 642 482 630T548 604L514 493Q491 506 460 516T390 526Q350 526 315 515T254 478T213 414T198 317Q198 264 212
224T253 158T313 118T389 105Z" />
<glyph unicode="&#xc8;" glyph-name="Egrave" horiz-adv-x="523" d="M66 630H486V514H218V385H460V270H218V116H489V0H66V630ZM160 814H318L398 690H276L160 814Z" />
<glyph unicode="&#xc9;" glyph-name="Eacute" horiz-adv-x="523" d="M66 630H486V514H218V385H460V270H218V116H489V0H66V630ZM282 690H160L240 814H398L282 690Z" />
<glyph unicode="&#xca;" glyph-name="Ecircumflex" horiz-adv-x="523" d="M66 630H486V514H218V385H460V270H218V116H489V0H66V630ZM215 814H324L439 690H329L269 754L209 690H103L215 814Z" />
<glyph unicode="&#xcb;" glyph-name="Edieresis" horiz-adv-x="523" d="M66 630H486V514H218V385H460V270H218V116H489V0H66V630ZM104 748Q104 776 123 795T172 814Q201 814 220 795T239 748Q239 719 220 699T172 679Q143 679 124 699T104 748ZM309 748Q309 776
328 795T377 814Q406 814 425 795T444 748Q444 719 425 699T377 679Q348 679 329 699T309 748Z" />
<glyph unicode="&#xcc;" glyph-name="Igrave" horiz-adv-x="284" d="M218 630V0H66V630H218ZM-40 814H118L198 690H76L-40 814Z" />
<glyph unicode="&#xcd;" glyph-name="Iacute" horiz-adv-x="284" d="M218 630V0H66V630H218ZM208 690H86L166 814H324L208 690Z" />
<glyph unicode="&#xce;" glyph-name="Icircumflex" horiz-adv-x="284" d="M218 630V0H66V630H218ZM90 814H199L314 690H204L144 754L84 690H-22L90 814Z" />
<glyph unicode="&#xcf;" glyph-name="Idieresis" horiz-adv-x="284" d="M218 630V0H66V630H218ZM-29 748Q-29 776 -10 795T39 814Q68 814 87 795T106 748Q106 719 87 699T39 679Q10 679 -9 699T-29 748ZM176 748Q176 776 195 795T244 814Q273 814 292 795T311
748Q311 719 292 699T244 679Q215 679 196 699T176 748Z" />
<glyph unicode="&#xd0;" glyph-name="Eth" horiz-adv-x="698" d="M331 630Q406 630 467 611T571 554T638 460T662 328Q662 244 634 183T558 81T444 20T306 0H106V268H20V370H106V630H331ZM370 370V268H258V116H297Q337 116 374 126T440 160T485 226T502 328Q502
419 451 466T313 514H258V370H370Z" />
<glyph unicode="&#xd1;" glyph-name="Ntilde" d="M66 630H286L420 305L480 125H484L474 326V630H624V0H404L275 313L210 509H206L216 290V0H66V630ZM210 690Q210 715 216 737T234 775T263 801T302 811Q320 811 334 806T362 795T387 783T413 778Q427 778 434 787T443
814H513Q513 759 489 727T425 695Q406 695 390 700T359 711T332 722T309 727Q293 727 287 716T280 690H210Z" />
<glyph unicode="&#xd2;" glyph-name="Ograve" horiz-adv-x="710" d="M357 642Q425 642 483 620T583 555T648 452T672 314Q672 239 648 179T581 77T480 12T353 -11Q285 -11 227 11T127 74T62 176T38 314Q38 389 62 449T129 553T230 619T357 642ZM198 314Q198 261
210 221T245 155T295 116T357 103Q389 103 417 116T467 155T500 221T512 314Q512 369 500 409T465 476T415 515T353 528Q321 528 293 515T243 474T210 407T198 314ZM239 814H397L477 690H355L239 814Z" />
<glyph unicode="&#xd3;" glyph-name="Oacute" horiz-adv-x="710" d="M357 642Q425 642 483 620T583 555T648 452T672 314Q672 239 648 179T581 77T480 12T353 -11Q285 -11 227 11T127 74T62 176T38 314Q38 389 62 449T129 553T230 619T357 642ZM198 314Q198 261
210 221T245 155T295 116T357 103Q389 103 417 116T467 155T500 221T512 314Q512 369 500 409T465 476T415 515T353 528Q321 528 293 515T243 474T210 407T198 314ZM357 690H235L315 814H473L357 690Z" />
<glyph unicode="&#xd4;" glyph-name="Ocircumflex" horiz-adv-x="710" d="M357 642Q425 642 483 620T583 555T648 452T672 314Q672 239 648 179T581 77T480 12T353 -11Q285 -11 227 11T127 74T62 176T38 314Q38 389 62 449T129 553T230 619T357 642ZM198 314Q198
261 210 221T245 155T295 116T357 103Q389 103 417 116T467 155T500 221T512 314Q512 369 500 409T465 476T415 515T353 528Q321 528 293 515T243 474T210 407T198 314ZM304 814H413L528 690H418L358 754L298 690H192L304 814Z" />
<glyph unicode="&#xd5;" glyph-name="Otilde" horiz-adv-x="710" d="M357 642Q425 642 483 620T583 555T648 452T672 314Q672 239 648 179T581 77T480 12T353 -11Q285 -11 227 11T127 74T62 176T38 314Q38 389 62 449T129 553T230 619T357 642ZM198 314Q198 261
210 221T245 155T295 116T357 103Q389 103 417 116T467 155T500 221T512 314Q512 369 500 409T465 476T415 515T353 528Q321 528 293 515T243 474T210 407T198 314ZM201 690Q201 715 207 737T225 775T254 801T293 811Q311 811 325 806T353 795T378 783T404 778Q418
778 425 787T434 814H504Q504 759 480 727T416 695Q397 695 381 700T350 711T323 722T300 727Q284 727 278 716T271 690H201Z" />
<glyph unicode="&#xd6;" glyph-name="Odieresis" horiz-adv-x="710" d="M357 642Q425 642 483 620T583 555T648 452T672 314Q672 239 648 179T581 77T480 12T353 -11Q285 -11 227 11T127 74T62 176T38 314Q38 389 62 449T129 553T230 619T357 642ZM198 314Q198
261 210 221T245 155T295 116T357 103Q389 103 417 116T467 155T500 221T512 314Q512 369 500 409T465 476T415 515T353 528Q321 528 293 515T243 474T210 407T198 314ZM187 748Q187 776 206 795T255 814Q284 814 303 795T322 748Q322 719 303 699T255 679Q226
679 207 699T187 748ZM392 748Q392 776 411 795T460 814Q489 814 508 795T527 748Q527 719 508 699T460 679Q431 679 412 699T392 748Z" />
<glyph unicode="&#xd7;" glyph-name="multiply" horiz-adv-x="460" d="M40 173L165 298L40 424L105 489L230 364L355 488L420 423L295 298L420 174L355 109L230 233L105 108L40 173Z" />
<glyph unicode="&#xd8;" glyph-name="Oslash" horiz-adv-x="710" d="M523 756L593 725L533 594Q597 554 634 483T672 314Q672 239 648 179T581 77T480 12T353 -11Q304 -11 262 0L189 -164L118 -132L191 27Q121 65 80 138T38 314Q38 389 62 449T129 553T230 619T357
642Q385 642 412 638T463 626L523 756ZM198 314Q198 250 211 209T246 144L411 519Q384 528 353 528Q321 528 293 515T243 474T210 407T198 314ZM357 103Q389 103 417 116T467 155T500 221T512 314Q512 369 502 407T475 471L314 107Q333 103 357 103Z" />
<glyph unicode="&#xd9;" glyph-name="Ugrave" horiz-adv-x="668" d="M66 630H218V253Q218 182 247 143T337 104Q397 104 423 142T450 241V630H602V254Q602 -11 337 -11Q211 -11 139 55T66 259V630ZM221 814H379L459 690H337L221 814Z" />
<glyph unicode="&#xda;" glyph-name="Uacute" horiz-adv-x="668" d="M66 630H218V253Q218 182 247 143T337 104Q397 104 423 142T450 241V630H602V254Q602 -11 337 -11Q211 -11 139 55T66 259V630ZM337 690H215L295 814H453L337 690Z" />
<glyph unicode="&#xdb;" glyph-name="Ucircumflex" horiz-adv-x="668" d="M66 630H218V253Q218 182 247 143T337 104Q397 104 423 142T450 241V630H602V254Q602 -11 337 -11Q211 -11 139 55T66 259V630ZM283 814H392L507 690H397L337 754L277 690H171L283 814Z" />
<glyph unicode="&#xdc;" glyph-name="Udieresis" horiz-adv-x="668" d="M66 630H218V253Q218 182 247 143T337 104Q397 104 423 142T450 241V630H602V254Q602 -11 337 -11Q211 -11 139 55T66 259V630ZM167 748Q167 776 186 795T235 814Q264 814 283 795T302 748Q302
719 283 699T235 679Q206 679 187 699T167 748ZM372 748Q372 776 391 795T440 814Q469 814 488 795T507 748Q507 719 488 699T440 679Q411 679 392 699T372 748Z" />
<glyph unicode="&#xdd;" glyph-name="Yacute" horiz-adv-x="609" d="M180 630L307 398L435 630H602L379 259V0H227V259L9 630H180ZM329 690H207L287 814H445L329 690Z" />
<glyph unicode="&#xde;" glyph-name="Thorn" horiz-adv-x="554" d="M66 630H212V509Q234 516 255 518T299 520Q348 520 389 506T460 464T506 400T523 316Q523 260 504 220T452 153T373 114T273 101Q261 101 244 102T212 106V0H66V630ZM212 218Q224 213 236 212T265
211Q314 211 343 237T373 312Q373 362 346 386T273 411Q239 411 212 400V218Z" />
<glyph unicode="&#xdf;" glyph-name="germandbls" horiz-adv-x="624" d="M66 0V470Q66 525 80 571T124 650T203 701T319 720Q363 720 403 708T473 673T522 617T540 544Q540 518 535 498T520 460Q472 449 452 432T432 386Q432 358 449 337T493 295Q539 260 563
226T588 143Q588 76 537 33T382 -11Q367 -11 349 -10T313 -5T280 3T254 14L284 115Q326 97 372 97Q406 97 423 113T440 151Q440 164 436 174T422 195T400 215T368 238Q329 266 307 298T285 380Q285 422 309 455T380 500Q382 506 384 515T386 539Q386 572 364 591T311
610Q265 610 239 576T212 456V0H66Z" />
<glyph unicode="&#xe0;" glyph-name="agrave" horiz-adv-x="512" d="M67 438Q108 462 159 476T265 491Q354 491 408 448T462 311V0H349L336 48H332Q312 22 277 6T193 -11Q152 -11 122 1T71 33T41 80T30 139Q30 181 48 211T98 260T172 288T263 297H313V323Q313
350 294 364T240 379Q210 379 181 370T117 341L67 438ZM314 207L281 206Q253 205 234 200T204 188T187 170T182 148Q182 117 200 106T243 94Q267 94 286 108T314 139V207ZM134 700H277L347 546H245L134 700Z" />
<glyph unicode="&#xe1;" glyph-name="aacute" horiz-adv-x="512" d="M67 438Q108 462 159 476T265 491Q354 491 408 448T462 311V0H349L336 48H332Q312 22 277 6T193 -11Q152 -11 122 1T71 33T41 80T30 139Q30 181 48 211T98 260T172 288T263 297H313V323Q313
350 294 364T240 379Q210 379 181 370T117 341L67 438ZM314 207L281 206Q253 205 234 200T204 188T187 170T182 148Q182 117 200 106T243 94Q267 94 286 108T314 139V207ZM297 546H195L265 700H408L297 546Z" />
<glyph unicode="&#xe2;" glyph-name="acircumflex" horiz-adv-x="512" d="M67 438Q108 462 159 476T265 491Q354 491 408 448T462 311V0H349L336 48H332Q312 22 277 6T193 -11Q152 -11 122 1T71 33T41 80T30 139Q30 181 48 211T98 260T172 288T263 297H313V323Q313
350 294 364T240 379Q210 379 181 370T117 341L67 438ZM314 207L281 206Q253 205 234 200T204 188T187 170T182 148Q182 117 200 106T243 94Q267 94 286 108T314 139V207ZM430 546H324L264 620L204 546H94L224 690H303L430 546Z" />
<glyph unicode="&#xe3;" glyph-name="atilde" horiz-adv-x="512" d="M67 438Q108 462 159 476T265 491Q354 491 408 448T462 311V0H349L336 48H332Q312 22 277 6T193 -11Q152 -11 122 1T71 33T41 80T30 139Q30 181 48 211T98 260T172 288T263 297H313V323Q313
350 294 364T240 379Q210 379 181 370T117 341L67 438ZM314 207L281 206Q253 205 234 200T204 188T187 170T182 148Q182 117 200 106T243 94Q267 94 286 108T314 139V207ZM84 546Q84 613 109 648T179 684Q198 684 216 677T251 661T280 645T305 637Q325 637 330
653T337 690H407Q408 620 383 587T313 554Q289 554 270 561T236 577T208 593T184 600Q168 600 162 585T154 546H84Z" />
<glyph unicode="&#xe4;" glyph-name="adieresis" horiz-adv-x="512" d="M67 438Q108 462 159 476T265 491Q354 491 408 448T462 311V0H349L336 48H332Q312 22 277 6T193 -11Q152 -11 122 1T71 33T41 80T30 139Q30 181 48 211T98 260T172 288T263 297H313V323Q313
350 294 364T240 379Q210 379 181 370T117 341L67 438ZM314 207L281 206Q253 205 234 200T204 188T187 170T182 148Q182 117 200 106T243 94Q267 94 286 108T314 139V207ZM88 620Q88 648 108 669T158 690Q188 690 207 669T227 620Q227 590 208 570T158 549Q129
549 109 569T88 620ZM297 620Q297 648 317 669T367 690Q397 690 416 669T436 620Q436 590 417 570T367 549Q338 549 318 569T297 620Z" />
<glyph unicode="&#xe5;" glyph-name="aring" horiz-adv-x="512" d="M67 438Q108 462 159 476T265 491Q354 491 408 448T462 311V0H349L336 48H332Q312 22 277 6T193 -11Q152 -11 122 1T71 33T41 80T30 139Q30 181 48 211T98 260T172 288T263 297H313V323Q313 350
294 364T240 379Q210 379 181 370T117 341L67 438ZM314 207L281 206Q253 205 234 200T204 188T187 170T182 148Q182 117 200 106T243 94Q267 94 286 108T314 139V207ZM161 623Q161 647 170 664T194 693T228 710T268 716Q289 716 308 711T342 694T366 665T375 623Q375
599 366 582T341 553T307 536T268 530Q248 530 229 536T195 554T171 583T161 623ZM226 623Q226 600 238 589T268 578Q285 578 297 589T310 623Q310 646 297 657T268 668Q252 668 239 657T226 623Z" />
<glyph unicode="&#xe6;" glyph-name="ae" horiz-adv-x="799" d="M766 207H456V203Q456 147 495 122T593 97Q634 97 665 105T717 124L744 22Q718 9 680 -1T584 -11Q521 -11 468 7T377 65H373Q345 32 305 11T198 -11Q156 -11 125 1T72 33T41 80T30 139Q30 181 48
211T98 260T172 288T263 297H323V323Q323 350 301 364T240 379Q210 379 181 370T117 341L67 438Q108 462 157 476T260 491Q305 491 344 475T404 430H406Q427 458 464 474T549 491Q648 491 707 431T766 260V207ZM182 148Q182 117 200 106T243 94Q269 94 294 109T330
144Q321 172 318 207L281 206Q253 205 234 200T204 188T187 170T182 148ZM615 298Q615 315 611 331T599 359T577 379T544 387Q509 387 486 363T459 296L615 298Z" />
<glyph unicode="&#xe7;" glyph-name="ccedilla" horiz-adv-x="474" d="M323 97Q355 97 379 105T417 121L444 21Q428 11 391 1T309 -11L292 -47Q325 -50 346 -69T368 -117Q368 -159 335 -179T250 -200Q224 -200 202 -195T166 -185L184 -126Q197 -131 208 -133T233
-135Q251 -135 262 -129T273 -109Q273 -94 258 -86T202 -78L233 -4Q190 4 155 23T94 73T54 145T39 238Q39 294 58 340T112 420T195 472T302 491Q333 491 369 484T444 457L413 356Q393 368 369 376T319 384Q261 384 225 349T189 242Q189 202 201 175T232 130T275
105T323 97Z" />
<glyph unicode="&#xe8;" glyph-name="egrave" horiz-adv-x="524" d="M491 207H181V203Q181 147 220 122T318 97Q359 97 390 105T442 124L469 22Q442 9 401 -1T299 -11Q245 -11 197 3T112 48T54 124T32 234Q32 291 49 338T99 420T175 472T274 491Q373 491 432 431T491
260V207ZM340 298Q340 315 336 331T324 359T302 379T269 387Q234 387 211 363T184 296L340 298ZM166 700H309L379 546H277L166 700Z" />
<glyph unicode="&#xe9;" glyph-name="eacute" horiz-adv-x="524" d="M491 207H181V203Q181 147 220 122T318 97Q359 97 390 105T442 124L469 22Q442 9 401 -1T299 -11Q245 -11 197 3T112 48T54 124T32 234Q32 291 49 338T99 420T175 472T274 491Q373 491 432 431T491
260V207ZM340 298Q340 315 336 331T324 359T302 379T269 387Q234 387 211 363T184 296L340 298ZM277 546H175L245 700H388L277 546Z" />
<glyph unicode="&#xea;" glyph-name="ecircumflex" horiz-adv-x="524" d="M491 207H181V203Q181 147 220 122T318 97Q359 97 390 105T442 124L469 22Q442 9 401 -1T299 -11Q245 -11 197 3T112 48T54 124T32 234Q32 291 49 338T99 420T175 472T274 491Q373 491
432 431T491 260V207ZM340 298Q340 315 336 331T324 359T302 379T269 387Q234 387 211 363T184 296L340 298ZM439 546H333L273 620L213 546H103L233 690H312L439 546Z" />
<glyph unicode="&#xeb;" glyph-name="edieresis" horiz-adv-x="524" d="M491 207H181V203Q181 147 220 122T318 97Q359 97 390 105T442 124L469 22Q442 9 401 -1T299 -11Q245 -11 197 3T112 48T54 124T32 234Q32 291 49 338T99 420T175 472T274 491Q373 491 432
431T491 260V207ZM340 298Q340 315 336 331T324 359T302 379T269 387Q234 387 211 363T184 296L340 298ZM98 620Q98 648 118 669T168 690Q198 690 217 669T237 620Q237 590 218 570T168 549Q139 549 119 569T98 620ZM307 620Q307 648 327 669T377 690Q407 690 426
669T446 620Q446 590 427 570T377 549Q348 549 328 569T307 620Z" />
<glyph unicode="&#xec;" glyph-name="igrave" horiz-adv-x="286" d="M69 0V480H217V0H69ZM-6 700H137L207 546H105L-6 700Z" />
<glyph unicode="&#xed;" glyph-name="iacute" horiz-adv-x="286" d="M69 0V480H217V0H69ZM181 546H79L149 700H292L181 546Z" />
<glyph unicode="&#xee;" glyph-name="icircumflex" horiz-adv-x="286" d="M69 0V480H217V0H69ZM309 546H203L143 620L83 546H-27L103 690H182L309 546Z" />
<glyph unicode="&#xef;" glyph-name="idieresis" horiz-adv-x="286" d="M69 0V480H217V0H69ZM-31 620Q-31 648 -11 669T39 690Q69 690 88 669T108 620Q108 590 89 570T39 549Q10 549 -10 569T-31 620ZM178 620Q178 648 198 669T248 690Q278 690 297 669T317 620Q317
590 298 570T248 549Q219 549 199 569T178 620Z" />
<glyph unicode="&#xf0;" glyph-name="eth" horiz-adv-x="570" d="M254 457Q288 457 321 446T378 416L381 418Q374 439 362 460T336 501T307 537T278 565L161 508L132 561L225 607Q202 622 177 632T122 650L177 747Q221 735 265 716T345 669L438 717L470 661L394
623Q422 597 447 560T491 477T522 376T534 260Q534 203 518 154T471 68T393 10T284 -11Q241 -11 197 2T117 45T59 118T36 224Q36 279 53 322T99 396T168 441T254 457ZM286 350Q268 350 250 344T218 323T194 285T185 227Q185 191 194 166T218 126T251 104T289 97Q310
97 328 107T360 134T381 176T389 228Q389 258 381 280T358 318T326 342T286 350Z" />
<glyph unicode="&#xf1;" glyph-name="ntilde" horiz-adv-x="574" d="M206 0H58V480H173L190 420Q222 453 262 472T349 491Q430 491 473 447T516 318V0H368V303Q368 338 352 358T303 379Q279 379 253 365T206 328V0ZM123 546Q123 613 148 648T218 684Q237 684 255
677T290 661T319 645T344 637Q364 637 369 653T376 690H446Q447 620 422 587T352 554Q328 554 309 561T275 577T247 593T223 600Q207 600 201 585T193 546H123Z" />
<glyph unicode="&#xf2;" glyph-name="ograve" horiz-adv-x="578" d="M539 243Q539 184 520 137T466 57T386 7T287 -11Q234 -11 189 5T110 53T58 129T39 233Q39 294 58 342T112 423T192 473T291 491Q344 491 389 475T468 428T520 350T539 243ZM387 238Q387 277
379 304T357 349T325 375T288 383Q269 383 252 376T221 352T199 308T191 238Q191 165 221 131T290 97Q309 97 326 104T357 128T379 172T387 238ZM143 700H286L356 546H254L143 700Z" />
<glyph unicode="&#xf3;" glyph-name="oacute" horiz-adv-x="578" d="M539 243Q539 184 520 137T466 57T386 7T287 -11Q234 -11 189 5T110 53T58 129T39 233Q39 294 58 342T112 423T192 473T291 491Q344 491 389 475T468 428T520 350T539 243ZM387 238Q387 277
379 304T357 349T325 375T288 383Q269 383 252 376T221 352T199 308T191 238Q191 165 221 131T290 97Q309 97 326 104T357 128T379 172T387 238ZM323 546H221L291 700H434L323 546Z" />
<glyph unicode="&#xf4;" glyph-name="ocircumflex" horiz-adv-x="578" d="M539 243Q539 184 520 137T466 57T386 7T287 -11Q234 -11 189 5T110 53T58 129T39 233Q39 294 58 342T112 423T192 473T291 491Q344 491 389 475T468 428T520 350T539 243ZM387 238Q387
277 379 304T357 349T325 375T288 383Q269 383 252 376T221 352T199 308T191 238Q191 165 221 131T290 97Q309 97 326 104T357 128T379 172T387 238ZM457 546H351L291 620L231 546H121L251 690H330L457 546Z" />
<glyph unicode="&#xf5;" glyph-name="otilde" horiz-adv-x="578" d="M539 243Q539 184 520 137T466 57T386 7T287 -11Q234 -11 189 5T110 53T58 129T39 233Q39 294 58 342T112 423T192 473T291 491Q344 491 389 475T468 428T520 350T539 243ZM387 238Q387 277
379 304T357 349T325 375T288 383Q269 383 252 376T221 352T199 308T191 238Q191 165 221 131T290 97Q309 97 326 104T357 128T379 172T387 238ZM122 546Q122 613 147 648T217 684Q236 684 254 677T289 661T318 645T343 637Q363 637 368 653T375 690H445Q446 620
421 587T351 554Q327 554 308 561T274 577T246 593T222 600Q206 600 200 585T192 546H122Z" />
<glyph unicode="&#xf6;" glyph-name="odieresis" horiz-adv-x="578" d="M539 243Q539 184 520 137T466 57T386 7T287 -11Q234 -11 189 5T110 53T58 129T39 233Q39 294 58 342T112 423T192 473T291 491Q344 491 389 475T468 428T520 350T539 243ZM387 238Q387 277
379 304T357 349T325 375T288 383Q269 383 252 376T221 352T199 308T191 238Q191 165 221 131T290 97Q309 97 326 104T357 128T379 172T387 238ZM115 620Q115 648 135 669T185 690Q215 690 234 669T254 620Q254 590 235 570T185 549Q156 549 136 569T115 620ZM324
620Q324 648 344 669T394 690Q424 690 443 669T463 620Q463 590 444 570T394 549Q365 549 345 569T324 620Z" />
<glyph unicode="&#xf7;" glyph-name="divide" horiz-adv-x="553" d="M201 74Q201 88 207 101T223 125T246 141T275 147Q305 147 326 125T348 74Q348 42 327 21T275 0Q245 0 223 21T201 74ZM201 416Q201 430 207 443T223 467T246 483T275 489Q305 489 326 467T348
416Q348 384 327 363T275 342Q245 342 223 363T201 416ZM513 285V204H40V285H513Z" />
<glyph unicode="&#xf8;" glyph-name="oslash" horiz-adv-x="578" d="M387 566L450 544L417 463Q472 436 504 382T539 247Q540 188 522 141T470 60T390 8T291 -11Q273 -11 256 -10T223 -4L193 -86L132 -64L163 15Q107 43 74 97T39 229Q38 290 56 338T108 420T188
472T287 491Q325 491 356 484L387 566ZM286 383Q267 383 250 376T220 351T199 306T191 236Q191 201 197 177T214 136L309 381Q304 382 298 382T286 383ZM387 240Q387 276 381 301T364 343L268 99Q274 97 280 97T293 97Q311 97 328 105T358 129T379 173T387 240Z"
/>
<glyph unicode="&#xf9;" glyph-name="ugrave" horiz-adv-x="569" d="M363 480H511V0H402L387 52H383Q373 42 359 31T326 11T281 -5T224 -11Q146 -11 102 32T58 159V480H206V171Q206 134 224 117T272 99Q307 99 329 113T363 144V480ZM123 700H266L336 546H234L123 700Z" />
<glyph unicode="&#xfa;" glyph-name="uacute" horiz-adv-x="569" d="M363 480H511V0H402L387 52H383Q373 42 359 31T326 11T281 -5T224 -11Q146 -11 102 32T58 159V480H206V171Q206 134 224 117T272 99Q307 99 329 113T363 144V480ZM337 546H235L305 700H448L337 546Z" />
<glyph unicode="&#xfb;" glyph-name="ucircumflex" horiz-adv-x="569" d="M363 480H511V0H402L387 52H383Q373 42 359 31T326 11T281 -5T224 -11Q146 -11 102 32T58 159V480H206V171Q206 134 224 117T272 99Q307 99 329 113T363 144V480ZM455 546H349L289 620L229
546H119L249 690H328L455 546Z" />
<glyph unicode="&#xfc;" glyph-name="udieresis" horiz-adv-x="569" d="M363 480H511V0H402L387 52H383Q373 42 359 31T326 11T281 -5T224 -11Q146 -11 102 32T58 159V480H206V171Q206 134 224 117T272 99Q307 99 329 113T363 144V480ZM107 620Q107 648 127 669T177
690Q207 690 226 669T246 620Q246 590 227 570T177 549Q148 549 128 569T107 620ZM316 620Q316 648 336 669T386 690Q416 690 435 669T455 620Q455 590 436 570T386 549Q357 549 337 569T316 620Z" />
<glyph unicode="&#xfd;" glyph-name="yacute" horiz-adv-x="540" d="M7 480H169L248 266L280 149H284L314 268L383 480H534L361 -9Q347 -50 328 -89T282 -162T215 -224T121 -270L60 -155Q119 -134 157 -95T209 -5L211 3L7 480ZM317 546H215L285 700H428L317 546Z" />
<glyph unicode="&#xfe;" glyph-name="thorn" horiz-adv-x="582" d="M544 238Q544 180 527 134T479 56T407 6T316 -11Q281 -11 255 -3T207 19V-173H60V715H207V447Q230 466 261 478T330 491Q430 491 487 425T544 238ZM392 234Q392 307 364 343T285 379Q261 379
240 367T208 342V126Q219 113 237 105T275 97Q298 97 319 105T356 130T382 173T392 234Z" />
<glyph unicode="&#xff;" glyph-name="ydieresis" horiz-adv-x="540" d="M7 480H169L248 266L280 149H284L314 268L383 480H534L361 -9Q347 -50 328 -89T282 -162T215 -224T121 -270L60 -155Q119 -134 157 -95T209 -5L211 3L7 480ZM108 620Q108 648 128 669T178
690Q208 690 227 669T247 620Q247 590 228 570T178 549Q149 549 129 569T108 620ZM317 620Q317 648 337 669T387 690Q417 690 436 669T456 620Q456 590 437 570T387 549Q358 549 338 569T317 620Z" />
<glyph unicode="&#x2013;" glyph-name="endash" horiz-adv-x="493" d="M463 279V188H30V279H463Z" />
<glyph unicode="&#x2014;" glyph-name="emdash" horiz-adv-x="906" d="M876 278V188H30V278H876Z" />
<glyph unicode="&#x2018;" glyph-name="quoteleft" horiz-adv-x="237" d="M126 590Q162 582 181 558T201 499Q201 465 179 440T114 415Q97 415 81 422T51 444T29 483T20 542Q20 579 32 612T64 674T109 725T161 761L202 705Q170 688 145 658T112 593L126 590Z" />
<glyph unicode="&#x2019;" glyph-name="quoteright" horiz-adv-x="237" d="M111 586Q75 594 56 618T36 677Q36 711 58 736T123 761Q139 761 156 754T186 732T208 693T217 634Q217 597 205 564T173 502T128 451T76 415L35 471Q67 488 92 518T125 583L111 586Z" />
<glyph unicode="&#x201a;" glyph-name="quotesinglbase" horiz-adv-x="246" d="M113 -10Q78 -3 57 19T35 77Q35 111 58 137T124 164Q140 164 158 157T191 135T216 95T226 36Q226 -1 214 -34T182 -96T137 -147T85 -182L44 -126Q76 -109 101 -79T134 -14L113 -10Z" />
<glyph unicode="&#x201c;" glyph-name="quotedblleft" horiz-adv-x="487" d="M126 590Q162 582 181 558T201 499Q201 465 180 440T116 415Q99 415 82 422T52 444T29 483T20 542Q20 579 32 612T64 674T109 725T161 761L202 705Q170 688 145 658T112 593L126 590ZM376
590Q412 582 431 558T451 499Q451 465 430 440T366 415Q349 415 332 422T302 444T279 483T270 542Q270 579 282 612T314 674T359 725T411 761L452 705Q420 688 395 658T362 593L376 590Z" />
<glyph unicode="&#x201d;" glyph-name="quotedblright" horiz-adv-x="487" d="M111 586Q75 594 56 618T36 677Q36 711 57 736T121 761Q137 761 154 754T185 732T208 693T217 634Q217 597 205 564T173 502T128 451T76 415L35 471Q67 488 92 518T125 583L111 586ZM361
586Q325 594 306 618T286 677Q286 711 307 736T371 761Q387 761 404 754T435 732T458 693T467 634Q467 597 455 564T423 502T378 451T326 415L285 471Q317 488 342 518T375 583L361 586Z" />
<glyph unicode="&#x201e;" glyph-name="quotedblbase" horiz-adv-x="506" d="M113 -10Q78 -3 57 19T35 77Q35 111 58 137T124 164Q140 164 158 157T191 135T216 95T226 36Q226 -1 214 -34T182 -96T137 -147T85 -182L44 -126Q76 -109 101 -79T134 -14L113 -10ZM373
-10Q338 -3 317 19T295 77Q295 111 318 137T384 164Q400 164 418 157T451 135T476 95T486 36Q486 -1 474 -34T442 -96T397 -147T345 -182L304 -126Q336 -109 361 -79T394 -14L373 -10Z" />
<glyph unicode="&#x2022;" glyph-name="bullet" horiz-adv-x="348" d="M39 276Q39 305 49 329T78 372T120 400T174 411Q202 411 227 401T270 372T298 329T309 276Q309 247 299 223T270 180T228 152T174 141Q145 141 121 151T78 180T50 222T39 276Z" />
<glyph unicode="&#x2039;" glyph-name="guilsinglleft" horiz-adv-x="293" d="M270 397L154 237L270 76H154L26 237L154 397H270Z" />
<glyph unicode="&#x203a;" glyph-name="guilsinglright" horiz-adv-x="293" d="M23 76L139 236L23 397H139L267 236L139 76H23Z" />
</font>
</defs>
</svg>
